Rock

[Guest Torrent] Marillion Cherry of Cologne

  • Download 5x Faster
  • Download torrent
  • Direct Download
  • Rate this torrent +  |  -
[Guest Torrent] Marillion Cherry of Cologne

Free and Direct Download with Usenet.nl 300GB+ free


Torrent info

Name:[Guest Torrent] Marillion Cherry of Cologne

Total Size: 4.01 GB

Magnet: Magnet Link

Seeds: 0

Leechers: 1

Stream: Watch Online @ Movie4u

Last Updated: 2015-10-10 10:07:36 (Update Now)

Torrent added: 2009-08-30 05:55:00





Torrent Files List


VIDEO_TS (Size: 4.01 GB) (Files: 18)

 VIDEO_TS

  VIDEO_TS.BUP

12.00 KB

  VIDEO_TS.IFO

12.00 KB

  VIDEO_TS.VOB

48.00 KB

  VTS_01_0.BUP

78.00 KB

  VTS_01_0.IFO

78.00 KB

  VTS_01_0.VOB

564.00 KB

  VTS_01_1.VOB

0.98 GB

  VTS_01_2.VOB

0.98 GB

  VTS_01_3.VOB

0.98 GB

  VTS_01_4.VOB

999.84 MB

  VTS_01_5.VOB

96.70 MB

 info.txt

2.84 KB

 Marillion - 1996-04-23 - E-Werk, Köln, Germany (Cover).jpg

522.68 KB

 Marillion - 1996-04-23 - E-Werk, Köln, Germany (Cover).pdf

1.15 MB

 Marillion - 1996-04-23 - E-Werk, Köln, Germany (DVD).jpg

272.56 KB

 Marillion - 1996-04-23 - E-Werk, Köln, Germany (DVD).pdf

534.18 KB

 Marillion - 1996-04-23 - E-Werk, Köln, Germany (Ticket).jpg

213.49 KB

 Marillion - 1996-04-23 - E-Werk, Köln, Germany (VHS).jpg

1.00 MB
 

tracker

leech seeds
 

Torrent description

Marillion - 1996-04-23 - "Cherry of Cologne" - E-Werk, Cologne, Germany (PAL-DVD)

Band: Marillion
Venue: E-Werk, Cologne, Germany
Date: 1996-04-23
Type: Audience Cam-Shot (I guess, it's done from the right balcony)
DVD : PAL
Menu: Yes
Chapters: No
Artwork: Yes

----------------------------------------------------------------------------

Lineage:

cam-shot (taper & equipment unknown) ->
VHS Tape ->
LG DVD+VHS-Recorder RC197H (dubbing) ->
DVDR ->
DVD Decrpyter (Streamcopy) ->
DVD-Lab Pro (authoring) ->
DVDR ->
you !

----------------------------------------------------------------------------

Marillion's only German concert during the "Made Again Tour".
My selfmade artwork (JPG & PDF) is included,
also a coverscan of the underlaying VHS & the concert-ticket.

For Trade only. Do not buy or sell.

enjoy it ;-)

----------------------------------------------------------------------------

Setlist:

01 - Seasons End
02 - King of Sunset Town
03 - Beautiful
04 - Berlin
05 - King
06 - The Bell in the Sea
07 - The Party
08 - Afraid of Sunlight
09 - Out of this World
10 - Easter
11 - Cover my eyes
12 - This Town / The Rakes Progress / 100 Nights
===
13 - The great Escape
14 - Made Again
===
15 - Freaks
16 - Market Square Heroes

----------------------------------------------------------------------------

Video stats:


Duration : 1h 53mn
Overall bit rate : 5 085 Kbps

Video
ID : 224 (0xE0)
Format : MPEG Video
Format version : Version 2
Format profile : [email protected]
Format settings, Matrix : Default
Duration : 1h 53mn
Bit rate mode : Variable
Bit rate : 4 598 Kbps
Nominal bit rate : 9 000 Kbps
Width : 720 pixels
Height : 576 pixels
Display aspect ratio : 16/9
Frame rate : 25.000 fps
Standard : PAL
Colorimetry : 4:2:0
Scan type : Interlaced
Scan order : Top Field First
Bits/(Pixel*Frame) : 0.443
Stream size : 3.64 GiB (91%)

Audio
ID : 128 (0x80)
Format : AC-3
Format/Info : Audio Coding 3
Duration : 1h 53mn
Bit rate mode : Constant
Bit rate : 256 Kbps
Channel(s) : 2 channels
Channel positions : L R
Sampling rate : 48.0 KHz
Video delay : -80ms
Stream size : 207 MiB (5%)

http://www.mindwarppavilion.org/

related torrents

Torrent name

health leech seeds Size
 

comments (0)

Main Menu