Other

Fred Zinnemann High Noon (1952) DVDRip x264

  • Download 5x Faster
  • Download torrent
  • Direct Download
  • Rate this torrent +  |  -
Fred Zinnemann High Noon (1952) DVDRip x264

Free and Direct Download with Usenet 300GB+ free


Torrent info

Name:Fred Zinnemann High Noon (1952) DVDRip x264

Total Size: 1.46 GB

Magnet: Magnet Link

Seeds: 0

Leechers: 0

Stream: Watch Online @ Movie4u

Last Updated: 2010-11-28 05:27:06 (Update Now)

Torrent added: 2009-08-30 05:53:48




Torrent Files List


High.Noon.1952.DVDRip.x264.AC3.Eng.Subs.mkv (Size: 1.46 GB) (Files: 1)

 High.Noon.1952.DVDRip.x264.AC3.Eng.Subs.mkv

1.46 GB
 

Announce URL: http://tracker.thepiratebay.org:80/announce

Torrent description

Notice: make sure your PC can play x264 encodes.

Plot: A marshall, personally compelled to face a returning deadly enemy, finds that his own town refuses to help him.

English audio and subs.

General
Format : Matroska
File size : 1.46 GiB
Duration : 1h 24mn
Overall bit rate : 2 465 Kbps
Encoded date : UTC 2009-06-17 13:53:14
Writing application : mkvmerge v2.9.5 ('Tu es le seul') built on Jun 7 2009 11:07:07
Writing library : libebml v0.7.7 + libmatroska v0.8.1

Video
ID : 3
Format : AVC
Format/Info : Advanced Video Codec
Format profile : [email protected]
Format settings, CABAC : Yes
Format settings, ReFrames : 16 frames
Muxing mode : Container [email protected]
Codec ID : V_MPEG4/ISO/AVC
Duration : 1h 24mn
Bit rate : 2 095 Kbps
Nominal bit rate : 2 143 Kbps
Width : 704 pixels
Height : 480 pixels
Display aspect ratio : 4/3
Frame rate : 23.976 fps
Resolution : 24 bits
Colorimetry : 4:2:0
Scan type : Progressive
Bits/(Pixel*Frame) : 0.259
Stream size : 1.24 GiB (85%)
Writing library : x264 core 67 r1165M 6841c5e
Encoding settings : cabac=1 / ref=16 / deblock=1:0:0 / analyse=0x3:0x133 / me=umh / subme=8 / psy_rd=1.0:0.0 / mixed_ref=1 / me_range=16 / chroma_me=0 / trellis=2 / 8x8dct=1 / cqm=0 / deadzone=21,11 / chroma_qp_offset=-2 / threads=3 / nr=0 / decimate=0 / mbaff=0 / bframes=11 / b_pyramid=1 / b_adapt=2 / b_bias=0 / direct=3 / wpredb=1 / keyint=240 / keyint_min=24 / scenecut=40 / rc=2pass / bitrate=2143 / ratetol=1.0 / qcomp=0.60 / qpmin=10 / qpmax=51 / qpstep=4 / cplxblur=20.0 / qblur=0.5 / ip_ratio=1.40 / pb_ratio=1.30 / aq=1:1.00

Audio
ID : 1
Format : AC-3
Format/Info : Audio Coding 3
Codec ID : A_AC3
Duration : 1h 24mn
Bit rate mode : Constant
Bit rate : 320 Kbps
Channel(s) : 4 channels
Channel positions : L C R, LFE
Sampling rate : 48.0 KHz
Video delay : 2ms
Stream size : 194 MiB (13%)
Language : English

Text
ID : 2
Format : UTF-8
Codec ID : S_TEXT/UTF8
Codec ID/Info : UTF-8 Plain Text
Language : English

*********************************** FREAKYFLICKS ************************************

'If we all seed just 1:1, give at least what we take, this torrent will NEVER DIE'

related torrents

Torrent name

health leech seeds Size
 

comments (0)

Main Menu