Rock

[FLAC]Led Zeppelin Led Zeppelin II[tntvillage scambioetico org]

  • Download 5x Faster
  • Download torrent
  • Direct Download
  • Rate this torrent +  |  -
[FLAC]Led Zeppelin Led Zeppelin II[tntvillage scambioetico org]

Free and Direct Download with Usenet 300GB+ free


Torrent info

Name:[FLAC]Led Zeppelin Led Zeppelin II[tntvillage scambioetico org]

Total Size: 245.22 MB

Magnet: Magnet Link

Seeds: 2

Leechers: 2

Stream: Watch Online @ Movie4u

Last Updated: 2010-07-24 11:50:52 (Update Now)

Torrent added: 2009-08-30 05:53:11




Torrent Files List


01.Whole Lotta Love.flac (Size: 219.90 MB) (Files: 10)

 01.Whole Lotta Love.flac

35.49 MB

 02.What Is And What Should Never Be.flac

27.03 MB

 03.The Lemon Song.flac

36.69 MB

 04.Thank You.flac

24.71 MB

 05.Heartbreaker.flac

26.19 MB

 06.Living Loving Maid.flac

19.26 MB

 07.Ramble On.flac

27.42 MB

 09.Bring It Home.flac

23.11 MB

 Led Zeppelin - II.cue

1.90 KB

 Led Zeppelin - II.log

4.54 KB
 

Announce URL: http://tracker.tntvillage.scambioetico.org:2710/announce

Torrent description

Title: Led Zeppelin II
Year: 1969
Genre: Rock, Hard Rock
Label: Atlantic
Producer: Jimmy Page

[::Personnel::]
Jimmy Page – acoustic guitar, electric guitar, pedal steel guitar, backing vocals, producer
Robert Plant – vocals, harmonica
John Paul Jones – bass guitar, organ, backing vocals
John Bonham – drums, backing vocals
Additional personnel
Peter Grant – executive producer
Eddie Kramer – engineer, mixing
George Chkiantz – engineer (tracks 1 and 2)
Chris Huston – engineer (tracks 3 and 8)
Andy Johns – engineer (track 4)
Bob Ludwig - mastering engineer

[::Tracklist::]
1.Whole Lotta Love - 5:34
2.What Is and What Should Never Be - 4:44
3.The Lemon Song - 6:19
4.Thank You - 4:47
5.Heartbreaker - 4:14
6.Living Loving Maid (She's Just a Woman) - 2:39
7.Ramble On - 4:23
8.Moby Dick - 4:21
9.Bring It on Home - 4:20

[::Log::]
Exact Audio Copy V0.99 prebeta 3 from 28. July 2007

EAC extraction logfile from 3. December 2007, 19:32

Led Zeppelin / Led Zeppelin II

Used drive : HL-DT-STDVDRRW GSA-H30L Adapter: 0 ID: 1

Read mode : Secure
Utilize accurate stream : Yes
Defeat audio cache : Yes
Make use of C2 pointers : No

Read offset correction : 102
Overread into Lead-In and Lead-Out : Yes
Fill up missing offset samples with silence : Yes
Delete leading and trailing silent blocks : No
Null samples used in CRC calculations : Yes
Used interface : Installed external ASPI interface
Gap handling : Appended to previous track

Used output format : User Defined Encoder
Selected bitrate : 1024 kBit/s
Quality : High
Add ID3 tag : Yes
Command line compressor : C:\flac-1.2.1b\flac.exe
Additional command line options : -6 -V -T "artist=%a" -T "title=%t" -T "album=%g" -T "date=%y" -T "tracknumber=%n" -T "genre=%m" -T comment="%e" -T "comment=(oan)" %s


TOC of the extracted CD

Track | Start | Length | Start sector | End sector
---------------------------------------------------------
1 | 0:00.33 | 5:34.05 | 33 | 25087
2 | 5:34.38 | 4:45.62 | 25088 | 46524
3 | 10:20.25 | 6:19.55 | 46525 | 75004
4 | 16:40.05 | 4:49.40 | 75005 | 96719
5 | 21:29.45 | 4:14.10 | 96720 | 115779
6 | 25:43.55 | 2:39.28 | 115780 | 127732
7 | 28:23.08 | 4:24.15 | 127733 | 147547
8 | 32:47.23 | 4:21.02 | 147548 | 167124
9 | 37:08.25 | 4:19.45 | 167125 | 186594


Track 1

Filename C:\Welcome To My Music Box Enjoy..;)\(01)-Whole Lotta Love-Led Zeppelin-1969.wav

Pre-gap length 0:00:02.33

Peak level 100.0 %
Track quality 99.9 %
Test CRC 861FF2E1
Copy CRC 861FF2E1
Accurately ripped (confidence 43) [C57A1F10]
Copy OK

Track 2

Filename C:\Welcome To My Music Box Enjoy..;)\(02)-What Is And What Should Never Be-Led Zeppelin-1969.wav

Pre-gap length 0:00:00.20

Peak level 99.9 %
Track quality 100.0 %
Test CRC 860D752E
Copy CRC 860D752E
Accurately ripped (confidence 43) [EDE799A7]
Copy OK

Track 3

Filename C:\Welcome To My Music Box Enjoy..;)\(03)-The Lemon Song-Led Zeppelin-1969.wav

Pre-gap length 0:00:01.42

Peak level 100.0 %
Track quality 100.0 %
Test CRC 03253B23
Copy CRC 03253B23
Accurately ripped (confidence 44) [ADC6A1DF]
Copy OK

Track 4

Filename C:\Welcome To My Music Box Enjoy..;)\(04)-Thank You-Led Zeppelin-1969.wav

Peak level 99.9 %
Track quality 99.9 %
Test CRC 2D2E56AE
Copy CRC 2D2E56AE
Accurately ripped (confidence 43) [BEF3EDCB]
Copy OK

Track 5

Filename C:\Welcome To My Music Box Enjoy..;)\(05)-Heartbreaker-Led Zeppelin-1969.wav

Pre-gap length 0:00:00.05

Peak level 100.0 %
Track quality 100.0 %
Test CRC 4D0A0405
Copy CRC 4D0A0405
Accurately ripped (confidence 42) [03B7FD99]
Copy OK

Track 6

Filename C:\Welcome To My Music Box Enjoy..;)\(06)-Living Loving Maid (She's Just A Woman)-Led Zeppelin-1969.wav

Peak level 100.0 %
Track quality 99.9 %
Test CRC 762B5875
Copy CRC 762B5875
Accurately ripped (confidence 44) [5A317476]
Copy OK

Track 7

Filename C:\Welcome To My Music Box Enjoy..;)\(07)-Ramble On-Led Zeppelin-1969.wav

Peak level 100.0 %
Track quality 100.0 %
Test CRC 35413582
Copy CRC 35413582
Accurately ripped (confidence 43) [8E949C21]
Copy OK

Track 8

Filename C:\Welcome To My Music Box Enjoy..;)\(08)-Moby Dick-Led Zeppelin-1969.wav

Pre-gap length 0:00:00.65

Peak level 99.9 %
Track quality 100.0 %
Test CRC 96B97513
Copy CRC 96B97513
Accurately ripped (confidence 43) [87661B5A]
Copy OK

Track 9

Filename C:\Welcome To My Music Box Enjoy..;)\(09)-Bring It On Home-Led Zeppelin-1969.wav

Peak level 100.0 %
Track quality 100.0 %
Test CRC A70AD7A7
Copy CRC A70AD7A7
Accurately ripped (confidence 44) [4291133C]
Copy OK


All tracks accurately ripped

No errors occurred

End of status report

related torrents

Torrent name

health leech seeds Size
 

comments (0)

Main Menu