Rock

Maggot Brain EAC FLAC Remastered 2005 Funkadelic [LOG+ART]

  • Download 5x Faster
  • Download torrent
  • Direct Download
  • Rate this torrent +  |  -
Maggot Brain EAC FLAC Remastered 2005 Funkadelic [LOG+ART]

Anonymous and Free Direct Download 300GB+


Torrent info

Name:Maggot Brain EAC FLAC Remastered 2005 Funkadelic [LOG+ART]

Total Size: 341.59 MB

Magnet: Magnet Link

Seeds: 0

Leechers: 0

Stream: Watch Online @ Movie4u

Last Updated: 2017-07-11 22:16:07 (Update Now)

Torrent added: 2009-08-30 05:48:41



VPN For Torrents

Torrent Files List


art (Size: 341.59 MB) (Files: 14)

 art

  back.jpg

786.12 KB

  disc.jpg

413.88 KB

  front.jpg

871.47 KB

  inlay.jpg

1.26 MB

  page01-12.jpg

1.81 MB

  page02-03.jpg

1.33 MB

  page04-05.jpg

1.61 MB

  page06-07.jpg

1.87 MB

  page08-09.jpg

1.64 MB

  page10-11.jpg

1.52 MB

 CDImage.cue

1.39 KB

 CDImage.flac

328.53 MB

 CDImage.log

2.34 KB

 Torrent downloaded from Demonoid.com.txt

0.05 KB
 

tracker

leech seeds
 

Torrent description

PLEASE SEED GENEROUSLY TO ENSURE PROPER DISTRIBUTION OF THIS MASTERPIECE & leave some comments as well!

--------------------------------------------------------------------------------
MAGGOT BRAIN REMASTERED 2005 (1971)
*******************
ACCURATE RIP
*******************

ARTIST: FUNKADELIC
FORMAT: FLAC

Maggot Brain is a 1971 album by the American funk band Funkadelic. It was released on Westbound Records. The music swings through psychedelia, hard rock, gospel and soul music, with tremendous variation between each track.

In 2003, the album was ranked number 486 on Rolling Stone magazine's list of the 500 greatest albums of all time. Pitchfork Media ranked it #17 in their Top 100 Albums of the 70s[2] list.

EAC FLAC rip with artwork
------------------------------------------------------------------------------

Exact Audio Copy V0.99 prebeta 3 from 28. July 2007

EAC extraction logfile from 27. July 2008, 22:11

Funkadelic / Maggot Brain

Used drive : ASUS DRW-1814BL Adapter: 0 ID: 1

Read mode : Secure
Utilize accurate stream : Yes
Defeat audio cache : Yes
Make use of C2 pointers : No

Read offset correction : 6
Overread into Lead-In and Lead-Out : No
Fill up missing offset samples with silence : Yes
Delete leading and trailing silent blocks : No
Null samples used in CRC calculations : Yes
Used interface : Installed external ASPI interface

Used output format : Internal WAV Routines
Sample format : 44.100 Hz; 16 Bit; Stereo


TOC of the extracted CD

Track | Start | Length | Start sector | End sector
---------------------------------------------------------
1 | 0:00.00 | 10:21.08 | 0 | 46582
2 | 10:21.08 | 2:51.42 | 46583 | 59449
3 | 13:12.50 | 3:51.68 | 59450 | 76842
4 | 17:04.43 | 3:38.01 | 76843 | 93193
5 | 20:42.44 | 4:01.22 | 93194 | 111290
6 | 24:43.66 | 2:40.49 | 111291 | 123339
7 | 27:24.40 | 9:47.59 | 123340 | 167423
8 | 37:12.24 | 2:13.27 | 167424 | 177425
9 | 39:25.51 | 5:05.09 | 177426 | 200309
10 | 44:30.60 | 9:35.72 | 200310 | 243506


Range status and errors

Selected range

Filename E:ape!torrentreleaseflacCDImage.wav

Peak level 97.4 %
Range quality 100.0 %
Copy CRC 0D79F033
Copy OK

No errors occurred


AccurateRip summary

Track 1 accurately ripped (confidence 8) [0DEF0CFB]
Track 2 accurately ripped (confidence 8) [6F363628]
Track 3 accurately ripped (confidence 8) [2E2C6358]
Track 4 accurately ripped (confidence 8) [9EF6121D]
Track 5 accurately ripped (confidence 8) [7488FDE7]
Track 6 accurately ripped (confidence 8) [B483E3F9]
Track 7 accurately ripped (confidence 8) [3567CEF0]
Track 8 accurately ripped (confidence 8) [C90D946E]
Track 9 accurately ripped (confidence 8) [45E5F444]
Track 10 accurately ripped (confidence 8) [62BA499D]

All tracks accurately ripped

End of status report

related torrents

Torrent name

health leech seeds Size
 


comments (0)

Main Menu