Rock

MAGGIE BELL Suicide Sal (1975) [Eac Flac][colombo bt org]

  • Download 5x Faster
  • Download torrent
  • Direct Download
  • Rate this torrent +  |  -
MAGGIE BELL Suicide Sal (1975) [Eac Flac][colombo bt org]

Anonymous and free Direct Download 300GB+


Torrent info

Name:MAGGIE BELL Suicide Sal (1975) [Eac Flac][colombo bt org]

Total Size: 248.81 MB

Magnet: Magnet Link

Seeds: 0

Leechers: 0

Stream: Watch Online @ Movie4u

Last Updated: 2013-02-15 19:33:15 (Update Now)

Torrent added: 2009-08-30 05:48:39



VPN For Torrents

Torrent Files List


01 Wishing Well.flac (Size: 231.43 MB) (Files: 20)

 01 Wishing Well.flac

23.30 MB

 02 Suicide Sal.flac

23.19 MB

 04 If You Don't Know.flac

22.44 MB

 05 What You Got.flac

20.79 MB

 06 In My Life.flac

19.60 MB

 07 Coming On Strong.flac

28.33 MB

 08 Hold On.flac

28.64 MB

 09 I Saw Him Standing Here.flac

30.85 MB

 10 It's Been So Long.flac

27.02 MB

 MAGGIE BELL - Suicide Sal (1975) [eac flac].ffp

0.66 KB

 Maggie Bell - Suicide Sal.log

4.96 KB

 Maggie Bell - Suicide Sal.m3u

0.64 KB

 Maggie Bell suicide sal.txt

0.53 KB

 MB - cd271.jpg

225.59 KB

 MB - fronte274.jpg

1.65 MB

 MB - interno273.jpg

2.20 MB

 MB - interno275.jpg

1.29 MB

 MB - interno276.jpg

1.16 MB

 MB - retro272.jpg

753.28 KB

 Suicide Sal.cue

1.60 KB
 

Announce URL:

Torrent description

\"MAGGIE BELL - Suicide Sal (1975)[Eac Flac]\"








Titolo: MAGGIE BELL - Suicide Sal (1975)
Anno: 1975
Etichetta: Repertoire
Genere: Rock
Formato: Flac Level 8
Cover: sì (scansioni originali)
Fonte: CD originale
Edizione: Repertoire 1997



Codice:
Exact Audio Copy V0.99 prebeta 3 from 28. July 2007

EAC extraction logfile from 5. May 2008, 22:52

Maggie Bell / Suicide Sal

Used drive : PLEXTOR DVDR PX-800A Adapter: 1 ID: 0

Read mode : Secure
Utilize accurate stream : Yes
Defeat audio cache : Yes
Make use of C2 pointers : No

Read offset correction : 48
Overread into Lead-In and Lead-Out : No
Fill up missing offset samples with silence : Yes
Delete leading and trailing silent blocks : No
Null samples used in CRC calculations : No
Used interface : Installed external ASPI interface
Gap handling : Appended to previous track

Used output format : Internal WAV Routines
Sample format : 44.100 Hz; 16 Bit; Stereo


TOC of the extracted CD

Track | Start | Length | Start sector | End sector
---------------------------------------------------------
1 | 0:00.00 | 3:35.07 | 0 | 16131
2 | 3:35.07 | 3:45.18 | 16132 | 33024
3 | 7:20.25 | 3:04.00 | 33025 | 46824
4 | 10:24.25 | 3:54.27 | 46825 | 64401
5 | 14:18.52 | 2:55.20 | 64402 | 77546
6 | 17:13.72 | 3:10.58 | 77547 | 91854
7 | 20:24.55 | 4:07.55 | 91855 | 110434
8 | 24:32.35 | 4:49.15 | 110435 | 132124
9 | 29:21.50 | 4:18.42 | 132125 | 151516
10 | 33:40.17 | 4:30.58 | 151517 | 171824


Track 1

Filename C:\\Documents and Settings\\Stefano\\Desktop\\MAGGIE BELL - Suicide Sal (1975) [eac flac]\\01 Wishing Well.wav

Pre-gap length 0:00:02.00

Peak level 98.4 %
Track quality 100.0 %
Test CRC C6B8795F
Copy CRC C6B8795F
Track not present in AccurateRip database
Copy OK

Track 2

Filename C:\\Documents and Settings\\Stefano\\Desktop\\MAGGIE BELL - Suicide Sal (1975) [eac flac]\\02 Suicide Sal.wav

Pre-gap length 0:00:02.17

Peak level 98.4 %
Track quality 100.0 %
Test CRC B59EFDBF
Copy CRC B59EFDBF
Track not present in AccurateRip database
Copy OK

Track 3

Filename C:\\Documents and Settings\\Stefano\\Desktop\\MAGGIE BELL - Suicide Sal (1975) [eac flac]\\03 I Was In Chains.wav

Pre-gap length 0:00:02.23

Peak level 93.9 %
Track quality 100.0 %
Test CRC 309F6932
Copy CRC 309F6932
Track not present in AccurateRip database
Copy OK

Track 4

Filename C:\\Documents and Settings\\Stefano\\Desktop\\MAGGIE BELL - Suicide Sal (1975) [eac flac]\\04 If You Don\'t Know.wav

Pre-gap length 0:00:02.35

Peak level 98.4 %
Track quality 100.0 %
Test CRC C0936231
Copy CRC C0936231
Track not present in AccurateRip database
Copy OK

Track 5

Filename C:\\Documents and Settings\\Stefano\\Desktop\\MAGGIE BELL - Suicide Sal (1975) [eac flac]\\05 What You Got.wav

Pre-gap length 0:00:02.15

Peak level 98.4 %
Track quality 100.0 %
Test CRC 4CBEDEE8
Copy CRC 4CBEDEE8
Track not present in AccurateRip database
Copy OK

Track 6

Filename C:\\Documents and Settings\\Stefano\\Desktop\\MAGGIE BELL - Suicide Sal (1975) [eac flac]\\06 In My Life.wav

Pre-gap length 0:00:03.02

Peak level 98.4 %
Track quality 100.0 %
Test CRC D98C753C
Copy CRC D98C753C
Track not present in AccurateRip database
Copy OK

Track 7

Filename C:\\Documents and Settings\\Stefano\\Desktop\\MAGGIE BELL - Suicide Sal (1975) [eac flac]\\07 Coming On Strong.wav

Pre-gap length 0:00:02.33

Peak level 93.7 %
Track quality 99.9 %
Test CRC D3984ADA
Copy CRC D3984ADA
Track not present in AccurateRip database
Copy OK

Track 8

Filename C:\\Documents and Settings\\Stefano\\Desktop\\MAGGIE BELL - Suicide Sal (1975) [eac flac]\\08 Hold On.wav

Pre-gap length 0:00:02.33

Peak level 97.9 %
Track quality 99.9 %
Test CRC 46959A1F
Copy CRC 46959A1F
Track not present in AccurateRip database
Copy OK

Track 9

Filename C:\\Documents and Settings\\Stefano\\Desktop\\MAGGIE BELL - Suicide Sal (1975) [eac flac]\\09 I Saw Him Standing Here.wav

Pre-gap length 0:00:02.15

Peak level 98.4 %
Track quality 100.0 %
Test CRC D82AE534
Copy CRC D82AE534
Track not present in AccurateRip database
Copy OK

Track 10

Filename C:\\Documents and Settings\\Stefano\\Desktop\\MAGGIE BELL - Suicide Sal (1975) [eac flac]\\10 It\'s Been So Long.wav

Pre-gap length 0:00:02.05

Peak level 93.1 %
Track quality 100.0 %
Test CRC E7C21593
Copy CRC E7C21593
Track not present in AccurateRip database
Copy OK


None of the tracks are present in the AccurateRip database

No errors occurred

End of status report





01.Wishing well
02.Suicide Sal
03.I was in chains
04.If you don\'t know
05.What you got
06.In my life
07.Comin\' on strong
08.Hold on
09.I saw him standing there
10.It\'s been so long






La grande MAGGIE BELL è una cantante scozzese di blues rock, la cui carriera vide il proprio apice negli anni settanta.
Etichettata puntualmente come la JANIS JOPLIN britannica (ah questi luoghi comuni!), MAGGIE ebbe un discreto successo con la sua prima band di un certo valore, gli STONE THE CROWN.
In questo periodo la BELL entrò nelle grazie di PETER GRANT, manager dei Led Zeppelin.
Grazie all’interessamento di GRANT la BELL pubblicò alcuni dischi da solista tra cui QUEEN OF THE NIGHT del 1974 e SUICIDE SAL del 1975. Nel 1981 capitanò i MIDNIGHT FLYER il cui unico disco (uscito per la SWAN SONG) non ebbe però successo (e ti credo, il disco è molto scarso seppur prodotto da MICK RALPH della BAD COMPANY) malgrado il tour insieme agli AC/DC. Sempre nel 1981 la cantante ebbe il suo unico vero successo grazie al singolo HOLD ME pubblicato come duetto insieme a B.A. Robertson.
MAGGIE si trasferì in Olanda per una ventina anni, per poi ritornare nella sua terra d’origine un paio d’anni fa, ed è da allora che è ritornata a cantare.

SUICIDE SAL è il suo album più convincente.
WISHING WELL (dei FREE) apre il disco col suo incedere nero e deciso mentre SUICIDE SAL definisce bene certo rock inglese del periodo.
IF YOU DON’T KNOW è una delle mie preferite (anche se il paragone con la JOPLIN diventa inevitabile) un po’ per l’andamento blues e un po’ per l’assolo di chitarra suonato da JIMMY PAGE in persona, assolo che personalmente trovo bellissimo.
Il resto si dipana attraverso rock blues scatenati (WHAT YOU GOT), struggenti ballate (IN MY LIFE e HOLD ON) e rock grezzo e caldo (COMIN ON STRONG e I SAW HIM STANDING THERE).

(note di nonantolaslim maggio08)

related torrents

Torrent name

health leech seeds Size
 


comments (0)

Main Menu