Other

Appaloosa[2008] Dvdrip Xvid [Engsubs] AC3[5 1] RoCK&BlueLadyRG

  • Download 5x Faster
  • Download torrent
  • Direct Download
  • Rate this torrent +  |  -
Appaloosa[2008] Dvdrip Xvid [Engsubs] AC3[5 1] RoCK&BlueLadyRG

Free and Direct Download with Usenet 300GB+ free


Torrent info

Name:Appaloosa[2008] Dvdrip Xvid [Engsubs] AC3[5 1] RoCK&BlueLadyRG

Total Size: 1.66 GB

Magnet: Magnet Link

Seeds: 0

Leechers: 0

Stream: Watch Online @ Movie4u

Last Updated: 2009-12-03 06:58:36 (Update Now)

Torrent added: 2009-08-30 05:35:33




Torrent Files List


Appaloosa[2008].Dvdrip.Xvid.[Engsubs]-RoCK&BlueLadyRG (commentary).srt (Size: 1.66 GB) (Files: 4)

 Appaloosa[2008].Dvdrip.Xvid.[Engsubs]-RoCK&BlueLadyRG (commentary).srt

136.35 KB

 Appaloosa[2008].Dvdrip.Xvid.[Engsubs]-RoCK&BlueLadyRG.avi

1.66 GB

 Appaloosa[2008].Dvdrip.Xvid.[Engsubs]-RoCK&BlueLadyRG.nfo

5.66 KB

 Appaloosa[2008].Dvdrip.Xvid.[Engsubs]-RoCK&BlueLadyRG.srt

84.12 KB
 

Announce URL: http://vip.tracker.thepiratebay.org:80/announce

Torrent description

<pre class="nfo">
RoCK & BlueLady RG

*******************************************************************************
Proudly presents: Appeloosa (2008)
*******************************************************************************

-------------------------------------------------------------------------------
General Information
-------------------------------------------------------------------------------
Type : Movie
Burn Tested : Yes
Subtitles : English for the hearing impeared
: English Directors Commentary
: Dutch can be found on http://www.genesis-sp.com

Format : AVI
Format/Info : Audio Video Interleave
Format profile : OpenDML
File size : 1.66 GiB
Duration : 1h 55mn
Overall bit rate : 2 047 Kbps
Writing application : AVI-Mux GUI 1.17.7, Aug 8 2006 20:59:17

Audio English
Format : AC-3
Format/Info : Audio Coding 3
Codec ID : 2000
Bit rate mode : Constant
Bit rate : 384 Kbps
Channel(s) : 6 channels
Channel positions : Front: L C R, Surround: L R, LFE
Sampling rate : 48.0 KHz
Stream size : 318 MiB (19%)
Alignment : Aligned on interleaves
Interleave, duration : 64 ms (1.53 video frames)
Interleave, preload duration : 1216 ms
Title : English (movie)

Audio English Directors Commentary
Format : MPEG Audio
Format version : Version 1
Format profile : Layer 3
Codec ID : 55
Codec ID/Hint : MP3
Bit rate mode : Variable
Bit rate : 130 Kbps
Nominal bit rate : 128 Kbps
Channel(s) : 2 channels
Sampling rate : 48.0 KHz
Resolution : 16 bits
Stream size : 107 MiB (6%)
Alignment : Aligned on interleaves
Interleave, duration : 24 ms (0.58 video frame)
Interleave, preload duration : 65 ms
Title : English (Directors commentary)
Writing library : LAME3.90.
Encoding settings : ABR

Video
Format : MPEG-4 Visual
Format settings, BVOP : No
Format settings, QPel : No
Format settings, GMC : No warppoints
Format settings, Matrix : Default
Codec ID : XVID
Codec ID/Hint : XviD
Duration : 1h 55mn
Bit rate : 1 523 Kbps
Width : 720 pixels
Height : 304 pixels
Display aspect ratio : 2.35
Frame rate : 23.976 fps
Resolution : 24 bits
Colorimetry : 4:2:0
Scan type : Progressive
Bits/(Pixel*Frame) : 0.290
Stream size : 1.23 GiB (74%)
Writing library : XviD 1.0.3 (UTC 2004-12-20)



Source : Retail-DVD
Original Format : NTSC
Genre : Crime | Drama | Western
IMDb Rating : 7.2 (4,560 Votes)
Movie Information : http://www.imdb.com/title/tt0800308/
-------------------------------------------------------------------------------
Post Information
-------------------------------------------------------------------------------
Posted by............: RoCK (http://www.genesis-sp.com)
Posted on............: 01-01-2009


-------------------------------------------------------------------------------
Release Notes
-------------------------------------------------------------------------------
Two friends hired to police a small town that is suffering under the rule of a
rancher find their job complicated by the arrival of a young widow.

Director: Ed Harris

Writers : Robert Knott
Ed Harris

Cast :

Robert Jauregui ... Marshall Jack Bell (as Bobby Jauregui)
Jeremy Irons ... Randall Bragg
Timothy V. Murphy ... Vince
Luce Rains ... Dean
James Tarwater ... Chalk (as Jim Tarwater)
Boyd Kestner ... Bronc
Gabriel Marantz ... Joe Whittfield
Ed Harris ... Virgil Cole
Viggo Mortensen ... Everett Hitch
Benjamin Rosenshein ... Town Boy
Cerris Morgan-Moyer ... Tilda
James Gammon ... Earl May
Timothy Spall ... Phil Olson
Tom Bower ... Abner Raines
Erik J. Bockemeier ... Fat Wallis

Enjoy this movie!



------------------------------------------------------------------------------------------
Announcement
------------------------------------------------------------------------------------------
I decided to drop the 1cd versions and replace them with movies in MKV format. This means
smaller filesizes with higher quality. The movies you can watch in VLC or download the x264
codec!

If you want to decode it and burn it on dvd use convertxtodvd 3


RoCK.






------------------------------------------------------------------------------------------
You can find us both at: http://www.genesis-sp.com/
------------------------------------------------------------------------------------------
</pre>

related torrents

Torrent name

health leech seeds Size
 

comments (0)

Main Menu