Other

A JOHN WAYNE DOUBLE BIG JAKE[1971&RIO LOBO[1970] A KIDZCORNER J T R H264 RIPS

  • Download 5x Faster
  • Download torrent
  • Direct Download
  • Rate this torrent +  |  -

Torrent info

Name:A JOHN WAYNE DOUBLE BIG JAKE[1971&RIO LOBO[1970] A KIDZCORNER J T R H264 RIPS

Total Size: 799.22 MB

Magnet: Magnet Link

Seeds: 0

Leechers: 0

Stream: Watch Full Movie @ Movie4u

Last Updated: 2011-01-23 02:12:38 (Update Now)

Torrent added: 2009-08-30 05:31:25



VPN For Torrents

Torrent Files List


big jake front.jpg (Size: 799.22 MB) (Files: 5)

 big jake front.jpg

36.04 KB

 BIG JAKE.mp4

399.27 MB

 rio lobo front.jpg

40.32 KB

 RIO LOBO.mp4

399.88 MB

 Torrent downloaded from Demonoid.com.txt

0.05 KB
 

Announce URL: http://tracker.torrentbox.com:2710/announce

Torrent description

BIG JAKE

Description

In this action-filled Western, JOHN WAYNE stars as Big Jake McCandles, a husband who hasn't seen his wife (MAUREEN O'HARA) in over 18 years. But he returns home after his grandson is kidnapped by a vicious outlaw gang. While the law gives chase in rickety automobiles, Jake saddles up with an Indian scout (BRUCE CABOT) and a box of money ­ even though paying a ransom isn't how Jake plans to exact good old frontier justice. Spiced with humor and first-class gunfights, this is a vivid depiction of the last days of the wild frontier.

Big Jake was a family affair for John Wayne. His oldest son Michael produced it and two other sons, Patrick and John Ethan, appear in it. The film also marks the second time RICHARD BOONE and John Wayne worked together and the fifth time Wayne worked with Maureen O'Hara.
-------------------------------------------------------------
General
Complete name : C:\Users\joker\Desktop\A-JOHN WAYNE DOUBLE-BIG JAKE[1971&RIO LOBO[1970]-A KIDZCORNER-J.T.R H264 RIPS\BIG JAKE.mp4
Format : MPEG-4
Format profile : Base Media / Version 2
Codec ID : mp42
File size : 399 MiB
Duration : 1h 45mn
Overall bit rate : 531 Kbps
Encoded date : UTC 2009-03-05 06:40:12
Tagged date : UTC 2009-03-05 10:32:37
Writing application : HandBrake 0.9.3 2008112300

Video
Format : AVC
Format/Info : Advanced Video Codec
Format profile : [email protected]
Format settings, CABAC : Yes
Format settings, ReFrames : 3 frames
Codec ID : avc1
Codec ID/Info : Advanced Video Coding
Duration : 1h 45mn
Bit rate mode : Variable
Bit rate : 368 Kbps
Width : 720 pixels
Height : 432 pixels
Display aspect ratio : 2.35
Frame rate mode : Variable
Frame rate : 25.000 fps
Minimum frame rate : 12.500 fps
Maximum frame rate : 25.000 fps
Resolution : 24 bits
Colorimetry : 4:2:0
Scan type : Progressive
Bits/(Pixel*Frame) : 0.047
Stream size : 276 MiB (69%)
Writing library : x264 core 65


Audio
Format : AAC
Format/Info : Advanced Audio Codec
Format version : Version 4
Format profile : LC
Format settings, SBR : No
Codec ID : 40
Duration : 1h 45mn
Bit rate mode : Variable
Bit rate : 160 Kbps
Maximum bit rate : 257 Kbps
Channel(s) : 2 channels
Channel positions : L R
Sampling rate : 48.0 KHz
Resolution : 16 bits
Stream size : 120 MiB (30%)
Language : English
Encoded date : UTC 2009-03-05 06:40:12
Tagged date : UTC 2009-03-05 10:32:32
--------------------------------

RIO LOBO

Description

A classic action-filled John Wayne western is set into motion with a spectacular robbery of a Union pay train by Confederate guerrillas. The train's colonel (Wayne) jails the enemy leaders (Jorge Rivero, Chris Mitchum) but the three men later become friends when the war ends. Together they seek the Union traitors responsible for a string of Confederate train robberies, a mission that culminates in a rousing shoot-'em-up finale.
------------------------------------------------------
General
Complete name : C:\Users\joker\Desktop\A-JOHN WAYNE DOUBLE-BIG JAKE[1971&RIO LOBO[1970]-A KIDZCORNER-J.T.R H264 RIPS\RIO LOBO.mp4
Format : MPEG-4
Format profile : Base Media / Version 2
Codec ID : mp42
File size : 400 MiB
Duration : 1h 49mn
Overall bit rate : 510 Kbps
Encoded date : UTC 2009-03-05 15:41:37
Tagged date : UTC 2009-03-05 21:04:28
Writing application : HandBrake 0.9.3 2008112300

Video
Format : AVC
Format/Info : Advanced Video Codec
Format profile : [email protected]
Format settings, CABAC : Yes
Format settings, ReFrames : 3 frames
Codec ID : avc1
Codec ID/Info : Advanced Video Coding
Duration : 1h 49mn
Bit rate mode : Variable
Bit rate : 346 Kbps
Width : 720 pixels
Height : 576 pixels
Display aspect ratio : 16/9
Frame rate mode : Variable
Frame rate : 25.000 fps
Minimum frame rate : 12.500 fps
Maximum frame rate : 25.000 fps
Standard : PAL
Resolution : 24 bits
Colorimetry : 4:2:0
Scan type : Progressive
Bits/(Pixel*Frame) : 0.033
Stream size : 271 MiB (68%)
Writing library : x264 core 65

Encoded date : UTC 2009-03-05 15:41:37
Tagged date : UTC 2009-03-05 21:04:28

Audio
Format : AAC
Format/Info : Advanced Audio Codec
Format version : Version 4
Format profile : LC
Format settings, SBR : No
Codec ID : 40
Duration : 1h 49mn
Bit rate mode : Variable
Bit rate : 160 Kbps
Maximum bit rate : 206 Kbps
Channel(s) : 2 channels
Channel positions : L R
Sampling rate : 48.0 KHz
Resolution : 16 bits
Stream size : 125 MiB (31%)
Language : English
Encoded date : UTC 2009-03-05 15:41:37
Tagged date : UTC 2009-03-05 21:04:22

related torrents

Torrent name

health leech seeds Size
 


comments (0)

Main Menu

 

script data-cfasync="false" src="//d2ghscazvn398x.cloudfront.net/?cshgd=690275">