Other

A Fistfull Of Dollars [1966] [eng] [ac3 3 2] [dvdrip M333] flawl3ss

  • Download 5x Faster
  • Download torrent
  • Direct Download
  • Rate this torrent +  |  -

Torrent info

Name:A Fistfull Of Dollars [1966] [eng] [ac3 3 2] [dvdrip M333] flawl3ss

Total Size: 1.27 GB

Magnet: Magnet Link

Seeds: 0

Leechers: 0

Stream: Watch Online @ Movie4u

Last Updated: 2015-10-19 07:35:13 (Update Now)

Torrent added: 2009-08-30 05:30:56



VPN For Torrents

Torrent Files List


A Fistfull Of Dollars [1966] [eng] [ac3 3.2] [dvdrip-M333]-flawl3ss.avi (Size: 1.27 GB) (Files: 5)

 A Fistfull Of Dollars [1966] [eng] [ac3 3.2] [dvdrip-M333]-flawl3ss.avi

1.27 GB

 a fistfull.jpg

40.99 KB

 Find us.jpg

218.31 KB

 NFO.txt

1.98 KB

 Torrent downloaded from Demonoid.com.txt

0.05 KB
 

Announce URL:

Torrent description

General
Complete name : A Fistfull Of Dollars [1966] [eng] [ac3 3.2] [dvdrip-M333]-flawl3ss.avi
Format : AVI
Format/Info : Audio Video Interleave
File size : 1.27 GiB
Duration : 1h 40mn
Overal bit rate : 1815 Kbps
Movie name : A Fistfull Of Dollars [1966] [eng] [ac3 3.2] [dvdrip-M333]-flawl3ss
Director : M333
Writing application : Lavf51.19.0
Product : A F O D 1966

Video
Format : MPEG-4 Visual
Format profile : [email protected]
Format settings, BVOP : No
Format settings, QPel : No
Format settings, GMC : No warppoints
Format settings, Matrix : Default
Codec ID : XVID
Codec ID/Hint : XviD
Duration : 1h 40mn
Bit rate : 1611 Kbps
Width : 784 pixels
Height : 336 pixels
Display aspect ratio : 2.35
Frame rate : 29.970 fps
Resolution : 8 bits
Colorimetry : 4:2:0
Scan type : Progressive
Bits/(Pixel*Frame) : 0.204
Stream size : 1.13 GiB
Writing library : XviD 1.1.2 (UTC 2006-11-01)

Audio
Format : AC-3
Format/Info : Audio Coding 3
Codec ID : 2000
Duration : 1h 40mn
Bit rate mode : Constant
Bit rate : 192 Kbps
Channel(s) : 2 channels
Channel positions : L R
Sampling rate : 48.0 KHz
Stream size : 137 MiB
Hash : 3C6C4DE807CCF9838E1DC70C302235FE894CF1E8

Imdb http://www.imdb.com/title/tt0058461/

related torrents

Torrent name

health leech seeds Size
 


comments (0)

Main Menu