War

Von Ryan's Express 1965 x264 mp4

  • Download 5x Faster
  • Download torrent
  • Direct Download
  • Rate this torrent +  |  -
Von Ryan's Express 1965 x264 mp4

Free and Direct Download with Usenet.nl 300GB+ free


Torrent info

Name:Von Ryan's Express 1965 x264 mp4

Total Size: 699.92 MB

Magnet: Magnet Link

Seeds: 0

Leechers: 2

Stream: Watch Online @ Movie4u

Last Updated: 2016-05-09 07:25:05 (Update Now)

Torrent added: 2009-08-30 05:09:53





Torrent Files List


Von Ryan's Express.1965.x264.mp4 (Size: 699.92 MB) (Files: 2)

 Von Ryan's Express.1965.x264.mp4

699.91 MB

 Von Ryan's Express.txt

2.95 KB
 

tracker

leech seeds
 

Torrent description

Title:
Von Ryan's Express

Director:
Mark Robson

Writers:
David Westheimer (novel)
Wendell Mayes (screenplay) ...

Release Date:
23 June 1965 (USA)

Genre:
Action | Drama | Adventure | War

Tagline:
Why did 600 Allied prisoners hate the man they called Von Ryan more than they hated Hitler?

Plot:
An American POW leads a group mainly British prisoners to escape from the Germans in WWII. full summary

Plot Keywords:
Nazi Occupied Italy | Undressing Scene | Train Hijack | Soldier | Silk Stockings

Awards:
Nominated for Oscar. Another 2 wins & 1 nomination

User Comments:
Sinatra shines in classic war movie

Cast
(Cast overview, first billed only)

Frank Sinatra ... Colonel Joseph L. Ryan
Trevor Howard ... Major Eric Fincham
Raffaella Carrà ... Gabriella (as Raffaella Carra)
Brad Dexter ... Sergeant Bostick
Sergio Fantoni ... Captain Oriani
John Leyton ... Orde
Edward Mulhare ... Captain Costanzo
Wolfgang Preiss ... Major Von Klemment
James Brolin ... Private Ames
John Van Dreelen ... Colonel Gortz (as John van Dreelen)
Adolfo Celi ... Battaglia
Vito Scotti ... Italian Train Engineer
Richard Bakalyan ... Corporal Giannini

Michael Goodliffe ... Captain Stein
Michael St. Clair ... Sergeant Major Dunbar

File info:
Complete name : Von Ryan's Express.1965.x264.mp4
Format : MPEG-4
Format profile : Base Media
Codec ID : isom
File size : 700 MiB
Duration : 1h 56mn
Overall bit rate : 837 Kbps
Encoded date : UTC 2008-11-26 21:21:12
Tagged date : UTC 2008-11-26 21:21:12
Video #1
Format : AVC
Format/Info : Advanced Video Codec
Format profile : [email protected]
Format settings, CABAC : Yes
Format settings, ReFrames : 3 frames
Codec ID : avc1
Codec ID/Info : Advanced Video Coding
Duration : 1h 56mn
Bit rate mode : Variable
Bit rate : 753 Kbps
Maximum bit rate : 2 332 Kbps
Width : 704 pixels
Height : 304 pixels
Display aspect ratio : 2.35
Frame rate mode : Constant
Frame rate : 23.976 fps
Resolution : 24 bits
Colorimetry : 4:2:0
Scan type : Progressive
Bits/(Pixel*Frame) : 0.147
Stream size : 630 MiB (90%)
Writing library : x264 core 65 r1029M cb3c213
Encoded date : UTC 2008-11-26 21:21:12
Tagged date : UTC 2008-11-26 21:22:22
Audio #2
Format : AAC
Format/Info : Advanced Audio Codec
Format version : Version 4
Format profile : LC
Format settings, SBR : No
Codec ID : 40
Duration : 1h 56mn
Bit rate mode : Variable
Bit rate : 79.9 Kbps
Maximum bit rate : 107 Kbps
Channel(s) : 2 channels
Channel positions : L R
Sampling rate : 48.0 KHz
Resolution : 16 bits
Stream size : 66.9 MiB (10%)
Encoded date : UTC 2008-11-26 21:22:02
Tagged date : UTC 2008-11-26 21:22:22

related torrents

Torrent name

health leech seeds Size
 

comments (0)

Main Menu