War

TORA TORA [email protected] H 264 RIP[ENG][HARD SUBBED]

  • Download 5x Faster
  • Download torrent
  • Direct Download
  • Rate this torrent +  |  -

Torrent info

Name:TORA TORA [email protected] H 264 RIP[ENG][HARD SUBBED]

Total Size: 900.76 MB

Magnet: Magnet Link

Seeds: 0

Leechers: 0

Stream: Watch Online @ Movie4u

Last Updated: 2015-09-20 12:17:56 (Update Now)

Torrent added: 2009-08-30 05:00:01





Torrent Files List


Noname.jpg (Size: 900.76 MB) (Files: 4)

 Noname.jpg

20.44 KB

 Tora_Tora_Tora_R1-[cdcovers_cc]-front.jpg

1.49 MB

 Torrent downloaded from Demonoid.com-1.txt

0.05 KB

 ttt.mp4

899.26 MB
 

Announce URL:

Torrent description

Review

Tora! Tora! Tora! Is the Japanese signal to attack and the movie meticulously recreates the attack on Pearl Harbour and the events leading up to it. Opening scenes contrast the American and Japanese positions. Japanese imperialists decide to stage the attack. Top U.S. brass ignore its possibility. Intercepted Japanese messages warn of it... but never reach FDR's desk. Radar warnings are disregarded. Even the entrapment of a Japanese submarine in Pearl Harbour before the attack goes unreported. Ultimately the Day of Infamy arrives... in the most spectacular, gut wrenching cavalcade of action packed darkest day... and some of her finest hours.


Format : MPEG-4
Format profile : Base Media / Version 2
Codec ID : mp42
File size : 899 MiB
Duration : 2h 18mn
Overall bit rate : 905 Kbps
Encoded date : UTC 2009-06-10 09:11:38
Tagged date : UTC 2009-06-10 14:49:28
Writing application : HandBrake 0.9.3 2008112300

Video
Format : AVC
Format/Info : Advanced Video Codec
Format profile : [email protected]
Format settings, CABAC : Yes
Format settings, ReFrames : 3 frames
Codec ID : avc1
Codec ID/Info : Advanced Video Coding
Duration : 2h 18mn
Bit rate mode : Variable
Bit rate : 742 Kbps
Width : 718 pixels
Height : 432 pixels
Display aspect ratio : 2.35
Frame rate mode : Variable
Frame rate : 25.000 fps
Minimum frame rate : 12.500 fps
Maximum frame rate : 56.604 fps
Resolution : 24 bits
Colorimetry : 4:2:0
Scan type : Progressive
Bits/(Pixel*Frame) : 0.096
Stream size : 737 MiB (82%)
Writing library : x264 core 65


Audio
Format : AAC
Format/Info : Advanced Audio Codec
Format version : Version 4
Format profile : LC
Format settings, SBR : No
Codec ID : 40
Duration : 2h 18mn
Bit rate mode : Variable
Bit rate : 160 Kbps
Maximum bit rate : 204 Kbps
Channel(s) : 2 channels
Channel positions : L R
Sampling rate : 48.0 KHz
Resolution : 16 bits
Stream size : 159 MiB (18%)
Language : English
Encoded date : UTC 2009-06-10 09:11:38
Tagged date : UTC 2009-06-10 14:49:20



related torrents

Torrent name

health leech seeds Size
 

comments (0)

Main Menu