Rock

WHITESNAKE Trouble (1978 Remaster 2006) [Eac Flac][colombo bt org]

  • Download 5x Faster
  • Download torrent
  • Direct Download
  • Rate this torrent +  |  -
WHITESNAKE Trouble (1978 Remaster 2006) [Eac Flac][colombo bt org]

Free and Direct Download with Usenet 300GB+ free


Torrent info

Name:WHITESNAKE Trouble (1978 Remaster 2006) [Eac Flac][colombo bt org]

Total Size: 413.00 MB

Magnet: Magnet Link

Seeds: 0

Leechers: 1

Stream: Watch Online @ Movie4u

Last Updated: 2015-08-30 13:36:13 (Update Now)

Torrent added: 2009-08-30 04:55:44




Torrent Files List


copertine - artwork (Size: 413.00 MB) (Files: 31)

 copertine - artwork

  ws trouble362.jpg

252.07 KB

  ws trouble363.jpg

891.31 KB

  ws trouble364.jpg

666.41 KB

  ws trouble365.jpg

807.76 KB

  ws trouble366.jpg

1.12 MB

  ws trouble367.jpg

1.62 MB

  ws trouble368.jpg

1.32 MB

  ws trouble369.jpg

1.38 MB

  ws trouble370.jpg

1.16 MB

  ws trouble371.jpg

1.62 MB

  ws trouble372.jpg

1.33 MB

  ws trouble373.jpg

1.35 MB

 flac

  01 Take Me With You.flac

36.36 MB

  02 Love To Keep You Warm.flac

27.48 MB

  03 Lie Down (A Modern Love Song).flac

24.91 MB

  04 Day Tripper.flac

27.31 MB

  05 Nighthawk (Vampire Blues).flac

27.99 MB

  06 The Time Is Right For Love.flac

25.73 MB

  07 Trouble.flac

35.23 MB

  08 Belgian Tom's Hat Trick.flac

25.65 MB

  09 Free Flight.flac

31.06 MB

  10 Don't Mess With Me.flac

25.22 MB

  11 Come On.flac

25.65 MB

  12 Bloody Mary.flac

23.74 MB

  13 Steal Away.flac

29.31 MB

  14 Ain't No Love In The Heart Of The City.flac

33.90 MB

 Trouble.cue

2.16 KB

 WHITESNAKE - Trouble (1978 - Remaster 2006)[eac flac].ffp

0.94 KB

 Whitesnake - Trouble.log

6.45 KB

 Whitesnake - Trouble.m3u

1.01 KB

 whitesnake trouble.txt

0.54 KB
 

tracker

leech seeds
 

Torrent description

WHITESNAKE   Trouble (1978   Remaster 2006) [Eac Flac][colombo bt org] preview 0

[color=blue][size=18pt]\"WHITESNAKE - Trouble (1978 - Remaster 2006)[Eac Flac]\"[/size][/color]

WHITESNAKE   Trouble (1978   Remaster 2006) [Eac Flac][colombo bt org] preview 1

[color=blue][font=Verdana]TITOLO: WHITESNAKE - Trouble
ANNO: 1978
ETICHETTA: Sunburst Records / EMI
GENERE: Hard Rock Inglese
FORMATO: Flac Level 8
COPERTINE: sì (scansioni originali)
FONTE: CD originale
EDIZIONE: EMI Remaster 2006 - Printed in the EU
[/font][/color]

[code]Exact Audio Copy V0.99 prebeta 3 from 28. July 2007

EAC extraction logfile from 4. June 2008, 22:32

Whitesnake / Trouble

Used drive : PLEXTOR DVDR PX-800A Adapter: 1 ID: 0

Read mode : Secure
Utilize accurate stream : Yes
Defeat audio cache : Yes
Make use of C2 pointers : No

Read offset correction : 48
Overread into Lead-In and Lead-Out : No
Fill up missing offset samples with silence : Yes
Delete leading and trailing silent blocks : No
Null samples used in CRC calculations : No
Used interface : Installed external ASPI interface
Gap handling : Appended to previous track

Used output format : Internal WAV Routines
Sample format : 44.100 Hz; 16 Bit; Stereo


TOC of the extracted CD

Track | Start | Length | Start sector | End sector
---------------------------------------------------------
1 | 0:00.00 | 4:45.46 | 0 | 21420
2 | 4:45.46 | 3:44.33 | 21421 | 38253
3 | 8:30.04 | 3:14.18 | 38254 | 52821
4 | 11:44.22 | 3:47.15 | 52822 | 69861
5 | 15:31.37 | 3:39.73 | 69862 | 86359
6 | 19:11.35 | 3:26.69 | 86360 | 101878
7 | 22:38.29 | 4:48.16 | 101879 | 123494
8 | 27:26.45 | 3:26.21 | 123495 | 138965
9 | 30:52.66 | 4:06.62 | 138966 | 157477
10 | 34:59.53 | 3:25.00 | 157478 | 172852
11 | 38:24.53 | 3:32.53 | 172853 | 188805
12 | 41:57.31 | 3:21.70 | 188806 | 203950
13 | 45:19.26 | 4:19.03 | 203951 | 223378
14 | 49:38.29 | 5:06.55 | 223379 | 246383


Track 1

Filename C:\\Documents and Settings\\Stefano\\Desktop\\WHITESNAKE - Trouble (1978 - Remaster 2006)[eac flac]\\01 Take Me With You.wav

Pre-gap length 0:00:02.00

Peak level 100.0 %
Track quality 100.0 %
Test CRC 1B2A0900
Copy CRC 1B2A0900
Accurately ripped (confidence 6) [BE0FD05C]
Copy OK

Track 2

Filename C:\\Documents and Settings\\Stefano\\Desktop\\WHITESNAKE - Trouble (1978 - Remaster 2006)[eac flac]\\02 Love To Keep You Warm.wav

Peak level 98.8 %
Track quality 99.9 %
Test CRC 7F0A4544
Copy CRC 7F0A4544
Accurately ripped (confidence 6) [0E4516D9]
Copy OK

Track 3

Filename C:\\Documents and Settings\\Stefano\\Desktop\\WHITESNAKE - Trouble (1978 - Remaster 2006)[eac flac]\\03 Lie Down (A Modern Love Song).wav

Peak level 99.8 %
Track quality 99.9 %
Test CRC C9608126
Copy CRC C9608126
Accurately ripped (confidence 7) [7816608F]
Copy OK

Track 4

Filename C:\\Documents and Settings\\Stefano\\Desktop\\WHITESNAKE - Trouble (1978 - Remaster 2006)[eac flac]\\04 Day Tripper.wav

Peak level 100.0 %
Track quality 100.0 %
Test CRC 26E9D041
Copy CRC 26E9D041
Accurately ripped (confidence 6) [AF497383]
Copy OK

Track 5

Filename C:\\Documents and Settings\\Stefano\\Desktop\\WHITESNAKE - Trouble (1978 - Remaster 2006)[eac flac]\\05 Nighthawk (Vampire Blues).wav

Peak level 100.0 %
Track quality 100.0 %
Test CRC 5C26BA80
Copy CRC 5C26BA80
Accurately ripped (confidence 6) [5199CDC0]
Copy OK

Track 6

Filename C:\\Documents and Settings\\Stefano\\Desktop\\WHITESNAKE - Trouble (1978 - Remaster 2006)[eac flac]\\06 The Time Is Right For Love.wav

Pre-gap length 0:00:01.23

Peak level 100.0 %
Track quality 100.0 %
Test CRC 937E7426
Copy CRC 937E7426
Accurately ripped (confidence 6) [049D3BA3]
Copy OK

Track 7

Filename C:\\Documents and Settings\\Stefano\\Desktop\\WHITESNAKE - Trouble (1978 - Remaster 2006)[eac flac]\\07 Trouble.wav

Peak level 97.1 %
Track quality 99.9 %
Test CRC 80C6B02D
Copy CRC 80C6B02D
Accurately ripped (confidence 6) [A99E75F1]
Copy OK

Track 8

Filename C:\\Documents and Settings\\Stefano\\Desktop\\WHITESNAKE - Trouble (1978 - Remaster 2006)[eac flac]\\08 Belgian Tom\'s Hat Trick.wav

Peak level 100.0 %
Track quality 100.0 %
Test CRC 5C49B518
Copy CRC 5C49B518
Accurately ripped (confidence 6) [05534EFB]
Copy OK

Track 9

Filename C:\\Documents and Settings\\Stefano\\Desktop\\WHITESNAKE - Trouble (1978 - Remaster 2006)[eac flac]\\09 Free Flight.wav

Peak level 100.0 %
Track quality 100.0 %
Test CRC 23BB8B33
Copy CRC 23BB8B33
Accurately ripped (confidence 6) [0B52890F]
Copy OK

Track 10

Filename C:\\Documents and Settings\\Stefano\\Desktop\\WHITESNAKE - Trouble (1978 - Remaster 2006)[eac flac]\\10 Don\'t Mess With Me.wav

Pre-gap length 0:00:01.05

Peak level 100.0 %
Track quality 100.0 %
Test CRC E1EE637C
Copy CRC E1EE637C
Accurately ripped (confidence 6) [DF7BD422]
Copy OK

Track 11

Filename C:\\Documents and Settings\\Stefano\\Desktop\\WHITESNAKE - Trouble (1978 - Remaster 2006)[eac flac]\\11 Come On.wav

Pre-gap length 0:00:06.15

Peak level 100.0 %
Track quality 100.0 %
Test CRC 24665CD2
Copy CRC 24665CD2
Accurately ripped (confidence 6) [101B3BB6]
Copy OK

Track 12

Filename C:\\Documents and Settings\\Stefano\\Desktop\\WHITESNAKE - Trouble (1978 - Remaster 2006)[eac flac]\\12 Bloody Mary.wav

Peak level 97.8 %
Track quality 100.0 %
Test CRC CE7C6404
Copy CRC CE7C6404
Accurately ripped (confidence 6) [52741EEF]
Copy OK

Track 13

Filename C:\\Documents and Settings\\Stefano\\Desktop\\WHITESNAKE - Trouble (1978 - Remaster 2006)[eac flac]\\13 Steal Away.wav

Pre-gap length 0:00:03.44

Peak level 97.9 %
Track quality 100.0 %
Test CRC 5CF250EC
Copy CRC 5CF250EC
Accurately ripped (confidence 6) [3BCD5CC1]
Copy OK

Track 14

Filename C:\\Documents and Settings\\Stefano\\Desktop\\WHITESNAKE - Trouble (1978 - Remaster 2006)[eac flac]\\14 Ain\'t No Love In The Heart Of The City.wav

Pre-gap length 0:00:03.01

Peak level 96.3 %
Track quality 100.0 %
Test CRC 9515D975
Copy CRC 9515D975
Accurately ripped (confidence 6) [48CE9927]
Copy OK


All tracks accurately ripped

No errors occurred

End of status report
[/code]

WHITESNAKE   Trouble (1978   Remaster 2006) [Eac Flac][colombo bt org] preview 2

[color=blue]01.take me with you
02.love to keep you warm
03.lie down
04.day tripper
05.nighthawk
06.the time is right for love
07.trouble
08.belgian tom\'s hat trick
09.free flight
10.don\'t mess with me

BONUS TRACKS: THE SNAKEBITE EP
11.come on
12.bloody mary
13.steal away
14.ain\'t no love in the heart of the city
[/color]

WHITESNAKE   Trouble (1978   Remaster 2006) [Eac Flac][colombo bt org] preview 3

WHITESNAKE   Trouble (1978   Remaster 2006) [Eac Flac][colombo bt org] preview 4

[font=Verdana]
Dopo i tre anni passati con i DEEP PURPLE e un paio di album solisti, DAVID COVERDALE – cantante rock inglese – forma gli WHITESNAKE con i quali forgerà definitivamente la sua carriera musicale. Dal 1978 al 1984 il gruppo è portatore sano di Hard Rock Blues inglese, forse non molto originale ma di un certo effetto, mentre per gli anni successivi il SERPENTE BIANCO cade nella deriva heavy metal da MTV. Certo, l’album 1987 è carino e porta a David Coverdale quel successo americano inseguito per anni, ma il nuovo corso sfigura – almeno per il sottoscritto – dinnanzi alla ingenua ma pura anima rock dei primi lavori. Poche settimane fa il gruppo ha pubblicato un imbarazzante nuovo album, contenente il “già sentito” del “già sentito”; per lavarci le orecchie quindi possiamo riascoltare TROUBLE, il primo lavoro della band del 1978.
Le canzoni in esso contenute mitigheranno le delusioni e ci faranno riesplodere l’amore che fu per questa buona band inglese.

(note di nonantolaslim giugno 08)
[/font]

WHITESNAKE   Trouble (1978   Remaster 2006) [Eac Flac][colombo bt org] preview 5

related torrents

Torrent name

health leech seeds Size
 

comments (0)

Main Menu