Rock

WHITESNAKE Love Hunter (Remaster 2006) (1979)[Eac Flac][colombo bt org]

  • Download 5x Faster
  • Download torrent
  • Direct Download
  • Rate this torrent +  |  -

Torrent info

Name:WHITESNAKE Love Hunter (Remaster 2006) (1979)[Eac Flac][colombo bt org]

Total Size: 434.16 MB

Magnet: Magnet Link

Seeds: 0

Leechers: 0

Stream: Watch Online @ Movie4u

Last Updated: 2015-08-30 12:26:37 (Update Now)

Torrent added: 2009-08-30 04:54:39




Torrent Files List


01 Long Way From Home.flac (Size: 434.16 MB) (Files: 26)

 01 Long Way From Home.flac

36.79 MB

 02 Walking In The Shadow Of The Blues.flac

33.40 MB

 03 Help Me Thro' The Day.flac

34.07 MB

 04 Medicine Man.flac

29.77 MB

 05 You 'N' Me.flac

26.91 MB

 06 Mean Business.flac

27.79 MB

 07 Love Hunter.flac

41.58 MB

 08 Outlaw.flac

31.11 MB

 09 Rock 'N' Roll Women.flac

36.68 MB

 10 We Wish You Well.flac

9.18 MB

 11 Belgium Tom's Hat Trick (Andy Peebles Radio 1 Session).flac

26.59 MB

 12 Love To Keep You Warm (Andy Peebles Radio 1 Session).flac

25.44 MB

 13 Ain't No Love In The Heart Of The City (Andy Peebles Radio 1 Session).flac

33.40 MB

 14 Trouble (Andy Peebles Radio 1 Session).flac

32.55 MB

 Lovehunter.cue

2.57 KB

 WHITESNAKE - LOVE HUNTER(Remaster 2006) (1979) [Eac Flac].ffp

1.05 KB

 Whitesnake - Lovehunter.log

6.91 KB

 Whitesnake - Lovehunter.m3u

1.23 KB

 Whitesnake Love Hunter.txt

0.54 KB

 WS - cd240.jpg

260.47 KB

 WS - fronte243.jpg

1.27 MB

 WS - interno244.jpg

1.59 MB

 WS - interno245.jpg

2.15 MB

 WS - interno246.jpg

2.07 MB

 WS - retro interno242.jpg

956.73 KB

 WS - retro241.jpg

641.95 KB
 

tracker

leech seeds
 

Torrent description

"WHITESNAKE - Love Hunter (Remaster 2006)(1979) [Eac Flac]"








Titolo: WHITESNAKE - Love Hunter (1979)
Etichetta: Emi
Genere: Hard Rock
Formato: Flac Level 8
Copertine: sì (scansioni originali)
Fonte: CD originale
Edizione: Sunburst Records/Emi - Remaster 2006 - Printed in The EU


Codice:
Exact Audio Copy V0.99 prebeta 3 from 28. July 2007

EAC extraction logfile from 1. May 2008, 23:46

Whitesnake / Lovehunter

Used drive : PLEXTOR DVDR PX-800A Adapter: 1 ID: 0

Read mode : Secure
Utilize accurate stream : Yes
Defeat audio cache : Yes
Make use of C2 pointers : No

Read offset correction : 48
Overread into Lead-In and Lead-Out : No
Fill up missing offset samples with silence : Yes
Delete leading and trailing silent blocks : No
Null samples used in CRC calculations : No
Used interface : Installed external ASPI interface
Gap handling : Appended to previous track

Used output format : Internal WAV Routines
Sample format : 44.100 Hz; 16 Bit; Stereo


TOC of the extracted CD

Track | Start | Length | Start sector | End sector
---------------------------------------------------------
1 | 0:00.00 | 4:58.21 | 0 | 22370
2 | 4:58.21 | 4:26.15 | 22371 | 42335
3 | 9:24.36 | 4:40.11 | 42336 | 63346
4 | 14:04.47 | 4:00.13 | 63347 | 81359
5 | 18:04.60 | 3:25.57 | 81360 | 96791
6 | 21:30.42 | 3:49.12 | 96792 | 113978
7 | 25:19.54 | 5:38.53 | 113979 | 139381
8 | 30:58.32 | 4:04.05 | 139382 | 157686
9 | 35:02.37 | 4:44.21 | 157687 | 179007
10 | 39:46.58 | 1:39.37 | 179008 | 186469
11 | 41:26.20 | 3:40.26 | 186470 | 202995
12 | 45:06.46 | 3:30.11 | 202996 | 218756
13 | 48:36.57 | 4:54.67 | 218757 | 240873
14 | 53:31.49 | 4:30.17 | 240874 | 261140


Track 1

Filename C:\Documents and Settings\Stefano\Desktop\WHITESNAKE - LOVE HUNTER(Remaster 2006) (1979) [Eac Flac]\01 Long Way From Home.wav

Pre-gap length 0:00:02.00

Peak level 100.0 %
Track quality 100.0 %
Test CRC 6B38E9A1
Copy CRC 6B38E9A1
Accurately ripped (confidence 4) [A55BDFC7]
Copy OK

Track 2

Filename C:\Documents and Settings\Stefano\Desktop\WHITESNAKE - LOVE HUNTER(Remaster 2006) (1979) [Eac Flac]\02 Walking In The Shadow Of The Blues.wav

Pre-gap length 0:00:01.39

Peak level 100.0 %
Track quality 100.0 %
Test CRC 79398D3D
Copy CRC 79398D3D
Accurately ripped (confidence 4) [A05A4ED6]
Copy OK

Track 3

Filename C:\Documents and Settings\Stefano\Desktop\WHITESNAKE - LOVE HUNTER(Remaster 2006) (1979) [Eac Flac]\03 Help Me Thro' The Day.wav

Pre-gap length 0:00:02.00

Peak level 100.0 %
Track quality 100.0 %
Test CRC A26E7CE7
Copy CRC A26E7CE7
Accurately ripped (confidence 4) [45FBB13D]
Copy OK

Track 4

Filename C:\Documents and Settings\Stefano\Desktop\WHITESNAKE - LOVE HUNTER(Remaster 2006) (1979) [Eac Flac]\04 Medicine Man.wav

Pre-gap length 0:00:01.15

Peak level 100.0 %
Track quality 100.0 %
Test CRC 30A7E821
Copy CRC 30A7E821
Accurately ripped (confidence 4) [6EE4AD30]
Copy OK

Track 5

Filename C:\Documents and Settings\Stefano\Desktop\WHITESNAKE - LOVE HUNTER(Remaster 2006) (1979) [Eac Flac]\05 You 'N' Me.wav

Pre-gap length 0:00:01.63

Peak level 100.0 %
Track quality 100.0 %
Test CRC 8FF53BC5
Copy CRC 8FF53BC5
Accurately ripped (confidence 4) [7F6CF8E3]
Copy OK

Track 6

Filename C:\Documents and Settings\Stefano\Desktop\WHITESNAKE - LOVE HUNTER(Remaster 2006) (1979) [Eac Flac]\06 Mean Business.wav

Pre-gap length 0:00:01.14

Peak level 100.0 %
Track quality 100.0 %
Test CRC CB1DFBDF
Copy CRC CB1DFBDF
Accurately ripped (confidence 4) [63C2AEE8]
Copy OK

Track 7

Filename C:\Documents and Settings\Stefano\Desktop\WHITESNAKE - LOVE HUNTER(Remaster 2006) (1979) [Eac Flac]\07 Love Hunter.wav

Pre-gap length 0:00:02.27

Peak level 100.0 %
Track quality 99.9 %
Test CRC 8DE21D3F
Copy CRC 8DE21D3F
Accurately ripped (confidence 4) [BCE1C91A]
Copy OK

Track 8

Filename C:\Documents and Settings\Stefano\Desktop\WHITESNAKE - LOVE HUNTER(Remaster 2006) (1979) [Eac Flac]\08 Outlaw.wav

Pre-gap length 0:00:02.26

Peak level 100.0 %
Track quality 99.9 %
Test CRC CEB245B1
Copy CRC CEB245B1
Accurately ripped (confidence 4) [567A604B]
Copy OK

Track 9

Filename C:\Documents and Settings\Stefano\Desktop\WHITESNAKE - LOVE HUNTER(Remaster 2006) (1979) [Eac Flac]\09 Rock 'N' Roll Women.wav

Pre-gap length 0:00:02.24

Peak level 100.0 %
Track quality 100.0 %
Test CRC FF34CB40
Copy CRC FF34CB40
Accurately ripped (confidence 4) [6BB57CC0]
Copy OK

Track 10

Filename C:\Documents and Settings\Stefano\Desktop\WHITESNAKE - LOVE HUNTER(Remaster 2006) (1979) [Eac Flac]\10 We Wish You Well.wav

Pre-gap length 0:00:00.47

Peak level 100.0 %
Track quality 100.0 %
Test CRC A9419A0E
Copy CRC A9419A0E
Accurately ripped (confidence 4) [9310642D]
Copy OK

Track 11

Filename C:\Documents and Settings\Stefano\Desktop\WHITESNAKE - LOVE HUNTER(Remaster 2006) (1979) [Eac Flac]\11 Belgium Tom's Hat Trick (Andy Peebles Radio 1 Session).wav

Pre-gap length 0:00:05.01

Peak level 100.0 %
Track quality 100.0 %
Test CRC AD95264C
Copy CRC AD95264C
Accurately ripped (confidence 4) [D7E24D29]
Copy OK

Track 12

Filename C:\Documents and Settings\Stefano\Desktop\WHITESNAKE - LOVE HUNTER(Remaster 2006) (1979) [Eac Flac]\12 Love To Keep You Warm (Andy Peebles Radio 1 Session).wav

Pre-gap length 0:00:01.26

Peak level 100.0 %
Track quality 100.0 %
Test CRC E7B42802
Copy CRC E7B42802
Accurately ripped (confidence 4) [E8837BFE]
Copy OK

Track 13

Filename C:\Documents and Settings\Stefano\Desktop\WHITESNAKE - LOVE HUNTER(Remaster 2006) (1979) [Eac Flac]\13 Ain't No Love In The Heart Of The City (Andy Peebles Radio 1 Session).wav

Pre-gap length 0:00:01.55

Peak level 100.0 %
Track quality 100.0 %
Test CRC DE549324
Copy CRC DE549324
Accurately ripped (confidence 4) [E14431C7]
Copy OK

Track 14

Filename C:\Documents and Settings\Stefano\Desktop\WHITESNAKE - LOVE HUNTER(Remaster 2006) (1979) [Eac Flac]\14 Trouble (Andy Peebles Radio 1 Session).wav

Pre-gap length 0:00:01.26

Peak level 100.0 %
Track quality 100.0 %
Test CRC A04262BA
Copy CRC A04262BA
Accurately ripped (confidence 4) [F87B69AB]
Copy OK


All tracks accurately ripped

No errors occurred

End of status report






01.Long way from home
02.Walking in the shadow of the blues
03.Help thro' the day
04.Medicine man
05.You'n'me
06.Mean business
07.Love hunter
08.Outlaw
09.Rock'n'roll women
10.We wish you well

Bonus tracks:

11.Belgium Tom's hat trick
12.Love to keep you warm
13.Ain't no love in the heart of the city
14.Trouble






Dopo i tre anni passati con i DEEP PURPLE e un paio di album solisti, DAVID COVERDALE – cantante rock inglese – forma gli WHITESNAKE con i quali forgerà definitivamente la sua carriera musicale. Dal 1978 al 1984 il gruppo è portatore sano di Hard Rock Blues inglese, forse non molto originale ma di un certo effetto, mentre negli gli anni successivi il SERPENTE BIANCO cade nella deriva heavy metal da MTV. Certo, l’album 1987 è carino e porta a David Coverdale quel successo americano inseguito per anni, ma il nuovo corso sfigura – almeno per il sottoscritto – dinnanzi alla ingenua ma pura anima rock dei primi lavori. Poche settimane fa il gruppo ha pubblicato un imbarazzante nuovo album, contenente il “già sentito” del “già sentito”; per lavarci le orecchie quindi possiamo riascoltare LOVE HUNTER, il secondo lavoro della band del 1979. WALKING IN THE SHADOW OF THE BLUES, WE WISH YOU WELL, HELP ME THRO’ THE DAY, LONG WAY FROM HOME mitigheranno le delusioni e ci faranno riassaporare l’amore che fu per questa buona band inglese.
(note di nonantolaslim maggio 08)

related torrents

Torrent name

health leech seeds Size
 


comments (0)

Main Menu