War

The Lord of the Rings The Two Towers(2002)Hindi DVDRip Xvid ~ Smeet

  • Download 5x Faster
  • Download torrent
  • Direct Download
  • Rate this torrent +  |  -
The Lord of the Rings The Two Towers(2002)Hindi DVDRip Xvid ~ Smeet

Free and Direct Download with Usenet.nl 300GB+ free


Torrent info

Name:The Lord of the Rings The Two Towers(2002)Hindi DVDRip Xvid ~ Smeet

Total Size: 1.09 GB

Magnet: Magnet Link

Seeds: 0

Leechers: 0

Stream: Watch Online @ Movie4u

Last Updated: 2015-09-20 11:30:06 (Update Now)

Torrent added: 2009-08-30 04:49:54





Torrent Files List


smeet.nfo (Size: 1.09 GB) (Files: 2)

 smeet.nfo

6.88 KB

 The Lord of the Rings-The Two Towers(2002)Hindi-DVDRip-Xvid ~ Smeet.avi

1.09 GB
 

tracker

leech seeds
 

Torrent description

=================================================
= The Lord of the Rings: The Two Towers (2002) =
=================================================

|##############################################################################|
| |
|GENERAL INFORMATION |
|=================== |
|Format : AVI |
|Format/Info : Audio Video Interleave |
|Format profile : OpenDML |
|File size : 1.09 GiB |
|Duration : 3h 50mn |
|Overall bit rate : 679 Kbps |
|Writing application : AVI-Mux GUI 1.17.7, Aug 8 2006 20:59:17 |
|SUBTITLE : NO |
|GENRE : Action | Adventure | Fantasy |
|IMDB LINK : http://www.imdb.com/title/tt0167261/ |
|IMDB RATING : 8.6/10 |
|RIPPER : SMEET |
|##############################################################################|

|##############################################################################|
| |
|Video |
|Format : MPEG-4 Visual |
|Format settings, Matrix : Default (H.263) |
|Codec ID : XVID |
|Codec ID/Hint : XviD |
|Duration : 3h 50mn |
|Width : 592 pixels |
|Height : 240 pixels |
|Display aspect ratio : 2.467 |
|Frame rate : 23.976 fps |
|Resolution : 24 bits |
|Colorimetry : 4:2:0 |
|Scan type : Progressive |
|Bits/(Pixel*Frame) : 0.161 |
|Stream size : 901 MiB (81%) |
|Writing library : XviD 1.2.1 (UTC 2008-12-04) rter. |
|##############################################################################|
|Audio |
|Format : MPEG Audio |
|Format version : Version 1 |
|Format profile : Layer 3 |
|Codec ID : 55 |
|Codec ID/Hint : MP3 |
|Duration : 3h 50mn |
|Bit rate mode : Constant |
|Bit rate : 128 Kbps |
|Channel(s) : 2 channels |
|Sampling rate : 48.0 KHz |
|Resolution : 16 bits |
|Stream size : 211 MiB (19%) |
|Alignment : Aligned on interleaves |
|Interleave, duration : 959 ms (22.99 video frames) |
|Interleave, preload duration : 216 ms |
|Title : 01 T80 3_2ch 448Kbps DELAY 0ms |
|Writing library : LAME3.98r |
|Encoding settings : -m j -V 4 -q 2 -lowpass 17 -b 128 |
|##############################################################################|








related torrents

Torrent name

health leech seeds Size
 

comments (0)

Main Menu