War

The Lord of the Rings The return of the king(2003)Hindi DVDRip Xvid ~ Smeet

  • Download 5x Faster
  • Download torrent
  • Direct Download
  • Rate this torrent +  |  -

Torrent info

Name:The Lord of the Rings The return of the king(2003)Hindi DVDRip Xvid ~ Smeet

Total Size: 1.18 GB

Magnet: Magnet Link

Seeds: 0

Leechers: 0

Stream: Watch Online @ Movie4u

Last Updated: 2015-09-20 11:30:04 (Update Now)

Torrent added: 2009-08-30 04:49:47



VPN For Torrents

Torrent Files List


smeet.nfo (Size: 1.18 GB) (Files: 2)

 smeet.nfo

6.90 KB

 The Lord of the Rings-The return of the king(2003)Hindi-DVDRip-Xvid ~ Smeet.avi

1.18 GB
 

tracker

leech seeds
 

Torrent description


=======================================================
= The Lord of the Rings: The return of the king(2003) =
=======================================================

|##############################################################################|
| |
|GENERAL INFORMATION |
|=================== |
|Format : AVI |
|Format/Info : Audio Video Interleave |
|Format profile : OpenDML |
|File size : 1.18 GiB |
|Duration : 4h 8mn |
|Overall bit rate : 681 Kbps |
|Language : Hindi, Urdu (Indian/pakistani viewrs) |
|SUBTITLE : NO |
|GENRE : Action | Adventure | Fantasy |
|IMDB LINK : http://www.imdb.com/title/tt0167260/ |
|IMDB RATING : 8.8/10 |
|RIPPER : SMEET |
|##############################################################################|

|##############################################################################|
| |
|Video |
|Format : MPEG-4 Visual |
|Format settings, Matrix : Default (H.263) |
|Codec ID : XVID |
|Codec ID/Hint : XviD |
|Duration : 4h 8mnn |
|Width : 592 pixels |
|Height : 240 pixels |
|Display aspect ratio : 2.467 |
|Frame rate : 29.970 fps |
|Resolution : 24 bits |
|Colorimetry : 4:2:0 |
|Scan type : Progressive |
|Bits/(Pixel*Frame) : 0.129 |
|Stream size : 974 MiB (81%) |
|Writing library : XviD 1.2.1 (UTC 2008-12-04) rter. |
|##############################################################################|
|Audio |
|Format : MPEG Audio |
|Format version : Version 1 |
|Format profile : Layer 3 |
|Codec ID : 55 |
|Codec ID/Hint : MP3 |
|Duration : 4h 8mn |
|Bit rate mode : Constant |
|Bit rate : 128 Kbps |
|Channel(s) : 2 channels |
|Sampling rate : 48.0 KHz |
|Resolution : 16 bits |
|Stream size : 227 MiB (19%) |
|Alignment : Aligned on interleaves |
|Interleave, duration : 927 ms (27.79 video frames) |
|Interleave, preload duration : 216 ms |
|Title : ll T80 2_0ch 192Kbps DELAY 0ms |
|Writing library : LAME3.98r |
|Encoding settings : -m j -V 4 -q 2 -lowpass 17 -b 128 |
|##############################################################################|








related torrents

Torrent name

health leech seeds Size
 


comments (0)

Main Menu