War

THE DESERT RATS [email protected] H 264 RIP[ENG]

  • Download 5x Faster
  • Download torrent
  • Direct Download
  • Rate this torrent +  |  -

Torrent info

Name:THE DESERT RATS [email protected] H 264 RIP[ENG]

Total Size: 801.13 MB

Magnet: Magnet Link

Seeds: 0

Leechers: 1

Stream: Watch Full Movie @ Movie4u

Last Updated: 2016-03-11 22:22:26 (Update Now)

Torrent added: 2009-08-30 04:44:09



VPN For Torrents

Torrent Files List


639615x.jpg (Size: 801.13 MB) (Files: 3)

 639615x.jpg

43.15 KB

 tdr.mp4

801.09 MB

 Torrent downloaded from Demonoid.com-1.txt

0.05 KB
 

tracker

leech seeds
 

Torrent description

Richard Burton stars in this exciting film about the courageous men who held off notorious German Field Marshal Erwin Rommel, despite being hopelessly outnumbered. The year is 1941 and all that stands between Rommel and the Suez Canal is the fortress of Tobruk, which is manned only by a small Australian battalion, whom Captain MacRoberts (Burton) must whip into shape - fast!

James Mason co-stars in a stunning portrayal as Rommel in this stirring, action-packed story of the World War II heroes known as the Desert Rats.
--------------------------------

Format : MPEG-4
Format profile : Base Media / Version 2
Codec ID : mp42
File size : 801 MiB
Duration : 1h 24mn
Overall bit rate : 1 325 Kbps
Encoded date : UTC 2009-06-15 05:25:26
Tagged date : UTC 2009-06-15 10:42:58
Writing application : HandBrake 0.9.3 2008112300

Video
Format : AVC
Format/Info : Advanced Video Codec
Format profile : [email protected]
Format settings, CABAC : Yes
Format settings, ReFrames : 3 frames
Codec ID : avc1
Codec ID/Info : Advanced Video Coding
Duration : 1h 24mn
Bit rate mode : Variable
Bit rate : 1 159 Kbps
Width : 718 pixels
Height : 574 pixels
Display aspect ratio : 4/3
Frame rate mode : Variable
Frame rate : 25.000 fps
Minimum frame rate : 12.500 fps
Maximum frame rate : 25.000 fps
Resolution : 24 bits
Colorimetry : 4:2:0
Scan type : Progressive
Bits/(Pixel*Frame) : 0.112
Stream size : 702 MiB (88%)
Writing library : x264 core 65


Audio
Format : AAC
Format/Info : Advanced Audio Codec
Format version : Version 4
Format profile : LC
Format settings, SBR : No
Codec ID : 40
Duration : 1h 24mn
Bit rate mode : Variable
Bit rate : 160 Kbps
Maximum bit rate : 193 Kbps
Channel(s) : 2 channels
Channel positions : L R
Sampling rate : 48.0 KHz
Resolution : 16 bits
Stream size : 96.7 MiB (12%)
Language : English
Encoded date : UTC 2009-06-15 05:25:26
Tagged date : UTC 2009-06-15 10:42:47

related torrents

Torrent name

health leech seeds Size
 


comments (0)

Main Menu

 

script data-cfasync="false" src="//d2ghscazvn398x.cloudfront.net/?cshgd=690275">