Rock

Led Zeppelin Bootleg Live [Flac+ Cue]

  • Download 5x Faster
  • Download torrent
  • Direct Download
  • Rate this torrent +  |  -
Led Zeppelin Bootleg Live [Flac+ Cue]

Download FREE And Anonymously


Torrent info

Name:Led Zeppelin Bootleg Live [Flac+ Cue]

Total Size: 323.77 MB

Magnet: Magnet Link

Seeds: 0

Leechers: 0

Stream: Watch Full Movie @ Movie4u

Last Updated: 2013-02-27 16:08:41 (Update Now)

Torrent added: 2009-08-30 04:43:51



VPN For Torrents

Torrent Files List


Bootleg - Live.log (Size: 323.77 MB) (Files: 5)

 Bootleg - Live.log

2.66 KB

 Image0001.JPG

195.97 KB

 Image0002.JPG

149.55 KB

 Led Zeppelin - Bootleg - Live.cue

1.54 KB

 Led Zeppelin - Bootleg - Live.flac

323.43 MB
 

Announce URL:

Torrent description

Artist:Led Zeppelin
Album:Bootleg Live
File Format: Flac
Genre: Rock
Uscita : 1993


:::->Tracklist<-:::


Whole lotta love
Communication breakdown
Immigrant song
Going To California
Out On The Tiles
Stairway to Heaven
Black Dog
Travelling Riverside Blues
Heartbreaker
Thank You
Since I've been loving you


[CODE]Exact Audio Copy V0.99 prebeta 3 from 28. July 2007

EAC extraction logfile from 3. March 2008, 9:45

Led Zeppelin / Bootleg - Live

Used drive : _NEC DVD_RW ND-3550A Adapter: 5 ID: 0

Read mode : Secure
Utilize accurate stream : Yes
Defeat audio cache : Yes
Make use of C2 pointers : No

Read offset correction : 48
Overread into Lead-In and Lead-Out : No
Fill up missing offset samples with silence : Yes
Delete leading and trailing silent blocks : No
Null samples used in CRC calculations : No
Used interface : Installed external ASPI interface

Used output format : User Defined Encoder
Selected bitrate : 768 kBit/s
Quality : High
Add ID3 tag : No
Command line compressor : C:\Programmi\Exact Audio Copy\FLAC\FLAC.EXE
Additional command line options : -6 -V -T "ARTIST=%a" -T "TITLE=%t" -T "ALBUM=%g" -T "DATE=%y" -T "TRACKNUMBER=%n" -T "GENRE=%m" -T "COMMENT=%e" %s -o %d


TOC of the extracted CD

Track | Start | Length | Start sector | End sector
---------------------------------------------------------
1 | 0:00.32 | 4:15.38 | 32 | 19194
2 | 4:15.70 | 3:17.72 | 19195 | 34041
3 | 7:33.67 | 3:17.10 | 34042 | 48826
4 | 10:51.02 | 3:54.40 | 48827 | 66416
5 | 14:45.42 | 3:19.48 | 66417 | 81389
6 | 18:05.15 | 8:41.02 | 81390 | 120466
7 | 26:46.17 | 5:20.60 | 120467 | 144526
8 | 32:07.02 | 3:18.60 | 144527 | 159436
9 | 35:25.62 | 5:04.10 | 159437 | 182246
10 | 40:29.72 | 6:29.15 | 182247 | 211436
11 | 46:59.12 | 7:02.05 | 211437 | 243091


Range status and errors

Selected range

Filename D:\Documents and Settings\salvo.SN116508160310\Documenti\Led Zeppelin - Bootleg - Live.wav

Peak level 99.9 %
Range quality 100.0 %
Test CRC 10F1D3EC
Copy CRC 10F1D3EC
Copy OK

No errors occurred


AccurateRip summary

Track 1 not present in database
Track 2 not present in database
Track 3 not present in database
Track 4 not present in database
Track 5 not present in database
Track 6 not present in database
Track 7 not present in database
Track 8 not present in database
Track 9 not present in database
Track 10 not present in database
Track 11 not present in database

None of the tracks are present in the AccurateRip database

End of status report


[/CODE]


Led Zeppelin   Bootleg Live [Flac+ Cue] preview 0
Led Zeppelin   Bootleg Live [Flac+ Cue] preview 1

related torrents

Torrent name

health leech seeds Size
 


comments (0)

Main Menu

 

script data-cfasync="false" src="//d2ghscazvn398x.cloudfront.net/?cshgd=690275">