War

THE DAMBUSTERS [email protected] H 264 RIP[ENG]

  • Download 5x Faster
  • Download torrent
  • Direct Download
  • Rate this torrent +  |  -

Torrent info

Name:THE DAMBUSTERS [email protected] H 264 RIP[ENG]

Total Size: 898.33 MB

Magnet: Magnet Link

Seeds: 7

Leechers: 9

Stream: Watch Online @ Movie4u

Last Updated: 0000-00-00 00:00:00 (Update Now)

Torrent added: 2009-08-30 04:43:46





Torrent Files List


main movie.mp4 (Size: 898.33 MB) (Files: 3)

 main movie.mp4

898.30 MB

 Noname.jpg

32.44 KB

 Torrent downloaded from Demonoid.com-3.txt

0.05 KB
 

Announce URL: http://inferno.demonoid.com:3413/announce

Torrent description

Description

A much-loved British classic, Michael Anderson's 1954 drama captures the tension and bravery of an audacious raid on the centre of Nazi Germany's industrial complex, and the quintessentially English combination of inventiveness and dogged determination.

Split into two distinct sections, the film deals with the fraught, but ultimately successful development of a new weapon by Dr. Barnes N. Wallis (Michael Redgrave). The second and pacier section deals with the mission itself during the British raid on the Ruhr Dams, and its associated costs for the enemy and for the British airmen.

Adapted by R.C. Sherriff from Paul Brickhill's book Enemy Coast Ahead and featuring superlative special effects photography by Gilbert Taylor (to say nothing of Eric Coates' stirring theme tune), The Dam Busters was Britain's biggest box-office success of 1955. Shot in black and white to allow the integration of original footage of the bomb trails, the film boasts a 'gritty', documentary-style reality.

Format : MPEG-4
Format profile : Base Media / Version 2
Codec ID : mp42
File size : 898 MiB
Duration : 1h 59mn
Overall bit rate : 1 049 Kbps
Encoded date : UTC 2009-05-25 03:05:49
Tagged date : UTC 2009-05-25 08:49:42
Writing application : HandBrake 0.9.3 2008112300

Video
Format : AVC
Format/Info : Advanced Video Codec
Format profile : [email protected]
Format settings, CABAC : Yes
Format settings, ReFrames : 3 frames
Codec ID : avc1
Codec ID/Info : Advanced Video Coding
Duration : 1h 59mn
Bit rate mode : Variable
Bit rate : 887 Kbps
Width : 720 pixels
Height : 576 pixels
Display aspect ratio : 4/3
Frame rate mode : Variable
Frame rate : 25.000 fps
Minimum frame rate : 12.500 fps
Maximum frame rate : 25.000 fps
Standard : PAL
Resolution : 24 bits
Colorimetry : 4:2:0
Scan type : Progressive
Bits/(Pixel*Frame) : 0.086
Stream size : 758 MiB (84%)
Writing library : x264 core 65


Audio
Format : AAC
Format/Info : Advanced Audio Codec
Format version : Version 4
Format profile : LC
Format settings, SBR : No
Codec ID : 40
Duration : 1h 59mn
Bit rate mode : Variable
Bit rate : 160 Kbps
Maximum bit rate : 260 Kbps
Channel(s) : 2 channels
Channel positions : L R
Sampling rate : 48.0 KHz
Resolution : 16 bits
Stream size : 137 MiB (15%)
Language : English
Encoded date : UTC 2009-05-25 03:05:49
Tagged date : UTC 2009-05-25 08:49:33

related torrents

Torrent name

health leech seeds Size
 

comments (0)

Main Menu