Other

UFC 102 Couture vs Nogueira [SatRiP XviD Mp3 ENG][TNTVillage Scambioetico]

  • Download 5x Faster
  • Download torrent
  • Direct Download
  • Rate this torrent +  |  -

Torrent info

Name:UFC 102 Couture vs Nogueira [SatRiP XviD Mp3 ENG][TNTVillage Scambioetico]

Total Size: 1.35 GB

Magnet: Magnet Link

Seeds: 0

Leechers: 2

Stream: Watch Online @ Movie4u

Last Updated: 2015-09-09 09:41:39 (Update Now)

Torrent added: 2009-08-30 04:35:15



VPN For Torrents

Torrent Files List


UFC.102.Couture.vs.Nogueira.DSR.XviD-XWT.avi (Size: 1.35 GB) (Files: 1)

 UFC.102.Couture.vs.Nogueira.DSR.XviD-XWT.avi

1.35 GB
 

tracker

leech seeds
 

Torrent description

UFC 102 Couture vs Nogueira [SatRiP-XviD-Mp3-ENG][TNTVillage.Scambioetico]



General
Complete name : C:\UFC.102.Couture.vs.Nogueira.DSR.XviD-XWT.avi
Format : AVI
Format/Info : Audio Video Interleave
File size : 1.35 GiB
Duration : 2h 46mn
Overall bit rate : 1 164 Kbps

Video
Format : MPEG-4 Visual
Format profile : Streaming [email protected]
Format settings, BVOP : Yes
Format settings, QPel : No
Format settings, GMC : No warppoints
Format settings, Matrix : Default
Codec ID : XVID
Codec ID/Hint : XviD
Duration : 2h 46mn
Bit rate : 1 023 Kbps
Width : 640 pixels
Height : 368 pixels
Display aspect ratio : 16/9
Frame rate : 25.000 fps
Resolution : 24 bits
Colorimetry : 4:2:0
Scan type : Progressive
Bits/(Pixel*Frame) : 0.174
Stream size : 1.19 GiB (88%)
Writing library : XviD 1.1.2 (UTC 2006-11-01)

Audio
Format : MPEG Audio
Format version : Version 1
Format profile : Layer 3
Codec ID : 55
Codec ID/Hint : MP3
Duration : 2h 46mn
Bit rate mode : Constant
Bit rate : 128 Kbps
Channel(s) : 2 channels
Sampling rate : 44.1 KHz
Resolution : 16 bits
Stream size : 153 MiB (11%)
Alignment : Aligned on interleaves
Interleave, duration : 26 ms (0.65 video frame)
Interleave, preload duration : 809 ms

related torrents

Torrent name

health leech seeds Size
 


comments (0)

Main Menu