War

So Proudly We Hail 1943 Claudette Colbert x264 mp4

  • Download 5x Faster
  • Download torrent
  • Direct Download
  • Rate this torrent +  |  -
So Proudly We Hail 1943 Claudette Colbert x264 mp4

Anonymous and Direct Download 300GB+ free


Torrent info

Name:So Proudly We Hail 1943 Claudette Colbert x264 mp4

Total Size: 699.92 MB

Magnet: Magnet Link

Seeds: 0

Leechers: 0

Stream: Watch Online @ Movie4u

Last Updated: 2011-06-19 03:15:28 (Update Now)

Torrent added: 2009-08-30 04:31:47




Torrent Files List


So Proudly We Hail.1943.x264.mp4 (Size: 699.92 MB) (Files: 2)

 So Proudly We Hail.1943.x264.mp4

699.92 MB

 So Proudly We Hail.txt

2.54 KB
 

Announce URL:

Torrent description

Title:
So Proudly We Hail
Director:
Mark Sandrich
Writer:
Allan Scott (writer)
Release Date:
18 February 1944 (Australia)
Genre:
Drama | Romance | War
Tagline:
The first great Love Story of our women at the fighting front!
Plot:
A group of nurses returning from the war in the Phillippines recall their experiences in combat and in love.
Plot Keywords:
Nurse | Army Nurse | Philippines | Corregidor | Evacuation
Awards:
Nominated for 4 Oscars.
Cast
Walter Abel ... Chaplain
Dorothy Adams ... Lt. Irma Emerson
James Bell ... Col. White
Barbara Britton ... Lt. Rosemary Larson
Dr. Hugh Ho Chang ... Ling Chee
Claudette Colbert ... Lt. Janet 'Davy' Davidson
Ann Doran ... Lt. Betty Peterson
Mimi Doyle ... Nurse
Paulette Goddard ... Lt. Joan O'Doul.....

File Info:

Complete name : So Proudly We Hail.1943.x264.mp4
Format : MPEG-4
Format profile : Base Media
Codec ID : isom
File size : 700 MiB
Duration : 2h 5mn
Overall bit rate : 778 Kbps
Encoded date : UTC 2009-03-13 08:57:16
Tagged date : UTC 2009-03-13 08:57:16
Video #1
Format : AVC
Format/Info : Advanced Video Codec
Format profile : [email protected]
Format settings, CABAC : Yes
Format settings, ReFrames : 3 frames
Codec ID : avc1
Codec ID/Info : Advanced Video Coding
Duration : 2h 5mn
Bit rate mode : Variable
Bit rate : 694 Kbps
Maximum bit rate : 1 609 Kbps
Width : 592 pixels
Height : 432 pixels
Display aspect ratio : 1.370
Frame rate mode : Constant
Frame rate : 23.976 fps
Resolution : 24 bits
Colorimetry : 4:2:0
Scan type : Progressive
Bits/(Pixel*Frame) : 0.113
Stream size : 624 MiB (89%)
Writing library : x264 core 67 r1127M 8d82fec
Encoded date : UTC 2009-03-13 08:57:16
Tagged date : UTC 2009-03-13 08:58:26
Audio #2
Format : AAC
Format/Info : Advanced Audio Codec
Format version : Version 4
Format profile : LC
Format settings, SBR : No
Codec ID : 40
Duration : 2h 5mn
Bit rate mode : Variable
Bit rate : 79.9 Kbps
Maximum bit rate : 115 Kbps
Channel(s) : 2 channels
Channel positions : L R
Sampling rate : 48.0 KHz
Resolution : 16 bits
Stream size : 71.9 MiB (10%)
Encoded date : UTC 2009-03-13 08:58:06
Tagged date : UTC 2009-03-13 08:58:26

related torrents

Torrent name

health leech seeds Size
 


comments (0)

Main Menu