Rock

Vasco Rossi Cosa succede in citta [LOSSLESS FLAC+CUE] Rock+Cover [TNTVillage Scambioetico]

  • Download 5x Faster
  • Download torrent
  • Direct Download
  • Rate this torrent +  |  -

Torrent info

Name:Vasco Rossi Cosa succede in citta [LOSSLESS FLAC+CUE] Rock+Cover [TNTVillage Scambioetico]

Total Size: 271.33 MB

Magnet: Magnet Link

Seeds: 0

Leechers: 0

Stream: Watch Online @ Movie4u

Last Updated: 2015-07-11 01:55:49 (Update Now)

Torrent added: 2009-08-30 04:25:33




Torrent Files List


Artwork (Size: 271.33 MB) (Files: 17)

 Artwork

  Back.png

217.21 KB

  Booklet (1,4).png

10.79 MB

  Booklet (2,3).png

8.07 MB

  CD.png

2.86 MB

 01 - Cosa c'e'.flac

34.68 MB

 02 - Domani si, adesso no.flac

31.87 MB

 03 - Cosa succede in citta'.flac

28.05 MB

 04 - Toffee.flac

33.01 MB

 05 - Ti taglio la gola.flac

24.89 MB

 06 - Una nuova canzone per lei.flac

23.62 MB

 07 - T'immagini.flac

25.96 MB

 08 - Bolle di sapone.flac

25.55 MB

 09 - Dormi, dormi.flac

21.74 MB

 folder.jpg

26.58 KB

 Vasco Rossi - Cosa succede in citta'.cue

1.73 KB

 Vasco Rossi - Cosa succede in citta'.log

4.24 KB

 Vasco Rossi - Cosa succede in citta'.m3u

0.24 KB
 

tracker

leech seeds
 

Torrent description

Vasco Rossi - Cosa succede in citta [LOSSLESS-FLAC+CUE] Rock+Cover [TNTVillage.Scambioetico]


Exact Audio Copy V0.99 prebeta 4 from 23. January 2008

EAC extraction logfile from 31. May 2009, 21:15

Vasco Rossi / Cosa succede in città

Used drive : HL-DT-STCD-RW GCE-8526B Adapter: 1 ID: 1

Read mode : Secure
Utilize accurate stream : Yes
Defeat audio cache : Yes
Make use of C2 pointers : No

Read offset correction : 6
Overread into Lead-In and Lead-Out : No
Fill up missing offset samples with silence : Yes
Delete leading and trailing silent blocks : No
Null samples used in CRC calculations : Yes
Used interface : Installed external ASPI interface
Gap handling : Appended to previous track

Used output format : User Defined Encoder
Selected bitrate : 128 kBit/s
Quality : High
Add ID3 tag : No
Command line compressor : C:\Codecs\FLAC\flac.exe
Additional command line options : -8 -V -T "ARTIST=%a" -T "TITLE=%t" -T "ALBUM=%g" -T "DATE=%y" -T "TRACKNUMBER=%n" -T "GENRE=%m" -T "COMMENT=EAC FLAC -8" %s -o %d


TOC of the extracted CD

Track | Start | Length | Start sector | End sector
---------------------------------------------------------
1 | 0:00.00 | 4:56.67 | 0 | 22266
2 | 4:56.67 | 4:26.60 | 22267 | 42276
3 | 9:23.52 | 4:06.02 | 42277 | 60728
4 | 13:29.54 | 5:15.22 | 60729 | 84375
5 | 18:45.01 | 3:50.16 | 84376 | 101641
6 | 22:35.17 | 3:42.66 | 101642 | 118357
7 | 26:18.08 | 3:58.46 | 118358 | 136253
8 | 30:16.54 | 3:48.68 | 136254 | 153421
9 | 34:05.47 | 3:40.74 | 153422 | 169995


Track 1

Filename C:\CDRip\01 - Cosa c'è.wav

Pre-gap length 0:00:02.00

Peak level 100.0 %
Track quality 100.0 %
Test CRC 0BB3425C
Copy CRC 0BB3425C
Accurately ripped (confidence 1) [DE881837]
Copy OK

Track 2

Filename C:\CDRip\02 - Domani si, adesso no.wav

Pre-gap length 0:00:02.00

Peak level 100.0 %
Track quality 100.0 %
Test CRC 0132486A
Copy CRC 0132486A
Accurately ripped (confidence 1) [BBC21CB2]
Copy OK

Track 3

Filename C:\CDRip\03 - Cosa succede in città.wav

Pre-gap length 0:00:02.00

Peak level 100.0 %
Track quality 99.9 %
Test CRC C4984AA2
Copy CRC C4984AA2
Accurately ripped (confidence 1) [65A13531]
Copy OK

Track 4

Filename C:\CDRip\04 - Toffee.wav

Pre-gap length 0:00:02.00

Peak level 100.0 %
Track quality 100.0 %
Test CRC 38420E32
Copy CRC 38420E32
Accurately ripped (confidence 1) [7BDE5944]
Copy OK

Track 5

Filename C:\CDRip\05 - Ti taglio la gola.wav

Pre-gap length 0:00:02.00

Peak level 98.5 %
Track quality 100.0 %
Test CRC 963BDD89
Copy CRC 963BDD89
Accurately ripped (confidence 1) [2DE128D5]
Copy OK

Track 6

Filename C:\CDRip\06 - Una nuova canzone per lei.wav

Pre-gap length 0:00:02.00

Peak level 100.0 %
Track quality 100.0 %
Test CRC 7F6A3DA5
Copy CRC 7F6A3DA5
Accurately ripped (confidence 1) [6A10CE3F]
Copy OK

Track 7

Filename C:\CDRip\07 - T'immagini.wav

Pre-gap length 0:00:02.00

Peak level 100.0 %
Track quality 100.0 %
Test CRC 60AF78E3
Copy CRC 60AF78E3
Accurately ripped (confidence 1) [D03FBF7C]
Copy OK

Track 8

Filename C:\CDRip\08 - Bolle di sapone.wav

Pre-gap length 0:00:02.00

Peak level 100.0 %
Track quality 100.0 %
Test CRC 70958485
Copy CRC 70958485
Accurately ripped (confidence 1) [DF871CFD]
Copy OK

Track 9

Filename C:\CDRip\09 - Dormi, dormi.wav

Pre-gap length 0:00:02.00

Peak level 100.0 %
Track quality 100.0 %
Test CRC 6AB9117F
Copy CRC 6AB9117F
Accurately ripped (confidence 1) [8BDCEED0]
Copy OK


All tracks accurately ripped

No errors occurred

End of status report

related torrents

Torrent name

health leech seeds Size
 

comments (0)

Main Menu