War

Letters from Iwo Jima 2006 BDRip MP3 2ch revised by [Gopo]

  • Download 5x Faster
  • Download torrent
  • Direct Download
  • Rate this torrent +  |  -
Letters from Iwo Jima 2006 BDRip MP3 2ch revised by [Gopo]

Free and Direct Download with Usenet 300GB+ free


Torrent info

Name:Letters from Iwo Jima 2006 BDRip MP3 2ch revised by [Gopo]

Total Size: 767.81 MB

Magnet: Magnet Link

Seeds: 0

Leechers: 0

Stream: Watch Online @ Movie4u

Last Updated: 2015-09-08 06:42:44 (Update Now)

Torrent added: 2009-08-30 04:05:17




Torrent Files List


Letters.from.Iwo.Jima.2006.BDRip.MP3.2ch.SecretMyth.revised.by.[Gopo].mkv (Size: 767.81 MB) (Files: 3)

 Letters.from.Iwo.Jima.2006.BDRip.MP3.2ch.SecretMyth.revised.by.[Gopo].mkv

767.81 MB

 Letters.from.Iwo.Jima.2006.BDRip.MP3.2ch.SecretMyth.revised.by.[Gopo].nfo

2.86 KB

 Torrent downloaded from Demonoid.com.txt

0.05 KB
 

tracker

leech seeds
 

Torrent description

General
Complete name : Letters.from.Iwo.Jima.2006.BDRip.MP3.2ch.revised.by.[Gopo]\Letters.from.Iwo.Jima.2006.BDRip.MP3.2ch.revised.by.[Gopo].mkv
Format : Matroska
File size : 768 MiB
Duration : 2h 20mn
Overall bit rate : 763 Kbps
Encoded date : UTC 2009-07-15 18:50:18
Writing application : mkvmerge v2.9.5 ('Tu es le seul') built on Jun 7 2009 11:07:07
Writing library : libebml v0.7.7 + libmatroska v0.8.1

Video
ID : 1
Format : AVC
Format/Info : Advanced Video Codec
Format profile : [email protected]
Format settings, CABAC : Yes
Format settings, ReFrames : 3 frames
Muxing mode : Container [email protected]
Codec ID : V_MPEG4/ISO/AVC
Duration : 2h 20mn
Bit rate : 595 Kbps
Nominal bit rate : 612 Kbps
Width : 1 248 pixels
Height : 528 pixels
Display aspect ratio : 2.35
Frame rate : 23.976 fps
Resolution : 24 bits
Colorimetry : 4:2:0
Scan type : Progressive
Bits/(Pixel*Frame) : 0.038
Stream size : 598 MiB (78%)
Writing library : x264 core 64 r973M f473669

Audio
ID : 2
Format : MPEG Audio
Format version : Version 1
Format profile : Layer 3
Codec ID : A_MPEG/L3
Codec ID/Hint : MP3
Duration : 2h 20mn
Bit rate mode : Variable
Bit rate : 153 Kbps
Minimum bit rate : 128 Kbps
Channel(s) : 2 channels
Sampling rate : 48.0 KHz
Resolution : 16 bits
Stream size : 154 MiB (20%)
Writing library : LAME3.90.
Encoding settings : -m j -V 0 -q 2 -lowpass 21.2 --vbr-old -b 128

SOURCE: Letters From Iwo Jima 2006 BDRip 5.1 ch-SecretMyth|Letters From Iwo Jima.mkv 700 Mb.The sound was horrible and clogged up, it wasn't on the same level as the video quality so I changed it.I removed the sound and extracted the binary from this source:Letters.From.Iwo.Jima.2006.720p.BD5.x264-DOWN.the binary was in .ac3.i converted with LameXP in MP3,now the sound is muuuch better.

PLOT:
The story of the battle of Iwo Jima between the United States and Imperial Japan during World War II, as told from the perspective of the Japanese who fought it

related torrents

Torrent name

health leech seeds Size
 

comments (0)

Main Menu