Rock

KEITH EMERSON & THE NICE Vivacitas Live At Glasgow 2002 (2003 3cd)[Eac Flac][colombo bt org]

  • Download 5x Faster
  • Download torrent
  • Direct Download
  • Rate this torrent +  |  -

Torrent info

Name:KEITH EMERSON & THE NICE Vivacitas Live At Glasgow 2002 (2003 3cd)[Eac Flac][colombo bt org]

Total Size: 722.08 MB

Magnet: Magnet Link

Seeds: 0

Leechers: 1

Stream: Watch Online @ Movie4u

Last Updated: 2016-01-30 06:53:44 (Update Now)

Torrent added: 2009-08-30 04:04:02





Torrent Files List


K.Emerson & the Nice - ARTWORK (Size: 722.08 MB) (Files: 39)

 K.Emerson & the Nice - ARTWORK

  booklet317.jpg

637.19 KB

  booklet318.jpg

1.21 MB

  booklet319.jpg

1.35 MB

  booklet320.jpg

1.52 MB

  box a315.jpg

641.60 KB

  box b316.jpg

786.48 KB

  cd1 321.jpg

361.70 KB

  cd2 325.jpg

421.16 KB

  cd3 326.jpg

430.20 KB

  fronte-retro 1 322.jpg

1.45 MB

  fronte-retro 2 323.jpg

1.70 MB

  fronte-retro 3 324.jpg

1.51 MB

 K.Emerson & the Nice.txt

0.55 KB

 KE&Nice cd1

  01 America,Rondo.flac

73.37 MB

  02 Little Arabella.flac

27.09 MB

  03 She Belongs To Me.flac

39.68 MB

  04 The Cry Of Eugene.flac

29.58 MB

  05 Hang On To A Dream.flac

60.73 MB

  06 Country Pie.flac

39.89 MB

  07 Karelia Suite.flac

53.17 MB

  KE&Nice cd1.ffp

0.50 KB

  Keith Emerson and The Nice - VIVACITAS CD1.log

3.87 KB

  Keith Emerson and The Nice - VIVACITAS CD1.m3u

0.57 KB

  VIVACITAS CD1.cue

1.19 KB

 KE&Nice cd2

  01 A Blade Of Grass.flac

9.11 MB

  02 A Cajun Alley.flac

19.33 MB

  03 Tarkus.flac

130.02 MB

  04 Hoe Down.flac

33.08 MB

  05 Fanfare For The Common Man.flac

54.41 MB

  06 Honky Tonk.flac

38.36 MB

  KE&Nice cd2.ffp

0.43 KB

  Keith Emerson and The Nice - VIVACITAS CD2.log

3.47 KB

  Keith Emerson and The Nice - VIVACITAS CD2.m3u

0.47 KB

  VIVACITAS CD2.cue

1.02 KB

 KE&Nice cd3

  01 Interview with Chris Welch.flac

102.29 MB

  KE&Nice cd3.ffp

0.17 KB

  Keith Emerson and The Nice - VIVACITAS CD3.log

1.52 KB

  Keith Emerson and The Nice - VIVACITAS CD3.m3u

0.11 KB

  VIVACITAS CD3.cue

0.32 KB
 

tracker

leech seeds
 

Torrent description

KEITH EMERSON & THE NICE   Vivacitas Live At Glasgow 2002 (2003 3cd)[Eac Flac][colombo bt org] preview 0

[color=blue][size=18pt]\\\"KEITH EMERSON & THE NICE - Vivacitas - Live At Glasgow 2002 (2003)[Eac Flac]\\\"[/size][/color]

KEITH EMERSON & THE NICE   Vivacitas Live At Glasgow 2002 (2003 3cd)[Eac Flac][colombo bt org] preview 1

KEITH EMERSON & THE NICE   Vivacitas Live At Glasgow 2002 (2003 3cd)[Eac Flac][colombo bt org] preview 2

[color=blue][font=Verdana]TITOLO: KEITH EMERSON & THE NICE - Vivacitas - Live Glasgow 2002
ANNO: 2003
ETICHETTA: Sanctuary
GENERE: Rock progressivo
FORMATO: Flac Level 8
COPERTINE: sì (scansioni originali)
FONTE: CD originale
EDIZIONE: Sanctuary 2003 - Made in Eu
[/font][/color]

[code]Exact Audio Copy V0.99 prebeta 3 from 28. July 2007

EAC extraction logfile from 18. May 2008, 0:16

Keith Emerson and The Nice / VIVACITAS CD1

Used drive : PLEXTOR DVDR PX-800A Adapter: 1 ID: 0

Read mode : Secure
Utilize accurate stream : Yes
Defeat audio cache : Yes
Make use of C2 pointers : No

Read offset correction : 48
Overread into Lead-In and Lead-Out : No
Fill up missing offset samples with silence : Yes
Delete leading and trailing silent blocks : No
Null samples used in CRC calculations : No
Used interface : Installed external ASPI interface
Gap handling : Appended to previous track

Used output format : Internal WAV Routines
Sample format : 44.100 Hz; 16 Bit; Stereo


TOC of the extracted CD

Track | Start | Length | Start sector | End sector
---------------------------------------------------------
1 | 0:00.00 | 11:13.67 | 0 | 50541
2 | 11:13.67 | 4:57.09 | 50542 | 72825
3 | 16:11.01 | 6:21.63 | 72826 | 101463
4 | 22:32.64 | 5:02.25 | 101464 | 124138
5 | 27:35.14 | 10:30.30 | 124139 | 171418
6 | 38:05.44 | 5:57.33 | 171419 | 198226
7 | 44:03.02 | 7:58.58 | 198227 | 234134


Track 1

Filename C:\\\\Documents and Settings\\\\Stefano\\\\Desktop\\\\KEITH EMERSON & THE NICE - Live At Glasgow 2002 (2003 3cd) [eac flac]\\\\KE&Nice cd1\\\\01 America,Rondo.wav

Pre-gap length 0:00:02.00

Peak level 99.8 %
Track quality 100.0 %
Test CRC 2BDBAF52
Copy CRC 2BDBAF52
Track not present in AccurateRip database
Copy OK

Track 2

Filename C:\\\\Documents and Settings\\\\Stefano\\\\Desktop\\\\KEITH EMERSON & THE NICE - Live At Glasgow 2002 (2003 3cd) [eac flac]\\\\KE&Nice cd1\\\\02 Little Arabella.wav

Peak level 99.8 %
Track quality 100.0 %
Test CRC 903B2194
Copy CRC 903B2194
Track not present in AccurateRip database
Copy OK

Track 3

Filename C:\\\\Documents and Settings\\\\Stefano\\\\Desktop\\\\KEITH EMERSON & THE NICE - Live At Glasgow 2002 (2003 3cd) [eac flac]\\\\KE&Nice cd1\\\\03 She Belongs To Me.wav

Peak level 99.8 %
Track quality 100.0 %
Test CRC CC964E8F
Copy CRC CC964E8F
Track not present in AccurateRip database
Copy OK

Track 4

Filename C:\\\\Documents and Settings\\\\Stefano\\\\Desktop\\\\KEITH EMERSON & THE NICE - Live At Glasgow 2002 (2003 3cd) [eac flac]\\\\KE&Nice cd1\\\\04 The Cry Of Eugene.wav

Peak level 99.8 %
Track quality 100.0 %
Test CRC 41F52A24
Copy CRC 41F52A24
Track not present in AccurateRip database
Copy OK

Track 5

Filename C:\\\\Documents and Settings\\\\Stefano\\\\Desktop\\\\KEITH EMERSON & THE NICE - Live At Glasgow 2002 (2003 3cd) [eac flac]\\\\KE&Nice cd1\\\\05 Hang On To A Dream.wav

Peak level 99.8 %
Track quality 100.0 %
Test CRC CA3D73AD
Copy CRC CA3D73AD
Track not present in AccurateRip database
Copy OK

Track 6

Filename C:\\\\Documents and Settings\\\\Stefano\\\\Desktop\\\\KEITH EMERSON & THE NICE - Live At Glasgow 2002 (2003 3cd) [eac flac]\\\\KE&Nice cd1\\\\06 Country Pie.wav

Peak level 99.8 %
Track quality 100.0 %
Test CRC 50B0389F
Copy CRC 50B0389F
Track not present in AccurateRip database
Copy OK

Track 7

Filename C:\\\\Documents and Settings\\\\Stefano\\\\Desktop\\\\KEITH EMERSON & THE NICE - Live At Glasgow 2002 (2003 3cd) [eac flac]\\\\KE&Nice cd1\\\\07 Karelia Suite.wav

Peak level 99.8 %
Track quality 100.0 %
Test CRC D6EDFFE6
Copy CRC D6EDFFE6
Track not present in AccurateRip database
Copy OK


None of the tracks are present in the AccurateRip database

No errors occurred

End of status report
[/code]

[code]Exact Audio Copy V0.99 prebeta 3 from 28. July 2007

EAC extraction logfile from 18. May 2008, 9:20

Keith Emerson and The Nice / VIVACITAS CD2

Used drive : PLEXTOR DVDR PX-800A Adapter: 1 ID: 0

Read mode : Secure
Utilize accurate stream : Yes
Defeat audio cache : Yes
Make use of C2 pointers : No

Read offset correction : 48
Overread into Lead-In and Lead-Out : No
Fill up missing offset samples with silence : Yes
Delete leading and trailing silent blocks : No
Null samples used in CRC calculations : No
Used interface : Installed external ASPI interface
Gap handling : Appended to previous track

Used output format : Internal WAV Routines
Sample format : 44.100 Hz; 16 Bit; Stereo


TOC of the extracted CD

Track | Start | Length | Start sector | End sector
---------------------------------------------------------
1 | 0:00.00 | 2:11.07 | 0 | 9831
2 | 2:11.07 | 4:11.63 | 9832 | 28719
3 | 6:22.70 | 21:00.10 | 28720 | 123229
4 | 27:23.05 | 5:06.09 | 123230 | 146188
5 | 32:29.14 | 7:55.25 | 146189 | 181838
6 | 40:24.39 | 6:05.47 | 181839 | 209260


Track 1

Filename C:\\\\Documents and Settings\\\\Stefano\\\\Desktop\\\\KEITH EMERSON & THE NICE - Live At Glasgow 2002 (2003 3cd) [eac flac]\\\\KE&Nice cd2\\\\01 A Blade Of Grass.wav

Pre-gap length 0:00:02.00

Peak level 70.5 %
Track quality 100.0 %
Test CRC A5EB210C
Copy CRC A5EB210C
Track not present in AccurateRip database
Copy OK

Track 2

Filename C:\\\\Documents and Settings\\\\Stefano\\\\Desktop\\\\KEITH EMERSON & THE NICE - Live At Glasgow 2002 (2003 3cd) [eac flac]\\\\KE&Nice cd2\\\\02 A Cajun Alley.wav

Peak level 99.8 %
Track quality 100.0 %
Test CRC 1158A1A3
Copy CRC 1158A1A3
Track not present in AccurateRip database
Copy OK

Track 3

Filename C:\\\\Documents and Settings\\\\Stefano\\\\Desktop\\\\KEITH EMERSON & THE NICE - Live At Glasgow 2002 (2003 3cd) [eac flac]\\\\KE&Nice cd2\\\\03 Tarkus.wav

Peak level 99.8 %
Track quality 100.0 %
Test CRC 648E1B7B
Copy CRC 648E1B7B
Track not present in AccurateRip database
Copy OK

Track 4

Filename C:\\\\Documents and Settings\\\\Stefano\\\\Desktop\\\\KEITH EMERSON & THE NICE - Live At Glasgow 2002 (2003 3cd) [eac flac]\\\\KE&Nice cd2\\\\04 Hoe Down.wav

Peak level 99.8 %
Track quality 100.0 %
Test CRC BAFA128A
Copy CRC BAFA128A
Track not present in AccurateRip database
Copy OK

Track 5

Filename C:\\\\Documents and Settings\\\\Stefano\\\\Desktop\\\\KEITH EMERSON & THE NICE - Live At Glasgow 2002 (2003 3cd) [eac flac]\\\\KE&Nice cd2\\\\05 Fanfare For The Common Man.wav

Peak level 99.8 %
Track quality 100.0 %
Test CRC 1E0A1824
Copy CRC 1E0A1824
Track not present in AccurateRip database
Copy OK

Track 6

Filename C:\\\\Documents and Settings\\\\Stefano\\\\Desktop\\\\KEITH EMERSON & THE NICE - Live At Glasgow 2002 (2003 3cd) [eac flac]\\\\KE&Nice cd2\\\\06 Honky Tonk.wav

Peak level 99.8 %
Track quality 99.9 %
Test CRC 3D295AF2
Copy CRC 3D295AF2
Track not present in AccurateRip database
Copy OK


None of the tracks are present in the AccurateRip database

No errors occurred

End of status report
[/code]

[code]Exact Audio Copy V0.99 prebeta 3 from 28. July 2007

EAC extraction logfile from 18. May 2008, 11:51

Keith Emerson and The Nice / VIVACITAS CD3

Used drive : PLEXTOR DVDR PX-800A Adapter: 1 ID: 0

Read mode : Secure
Utilize accurate stream : Yes
Defeat audio cache : Yes
Make use of C2 pointers : No

Read offset correction : 48
Overread into Lead-In and Lead-Out : No
Fill up missing offset samples with silence : Yes
Delete leading and trailing silent blocks : No
Null samples used in CRC calculations : No
Used interface : Installed external ASPI interface
Gap handling : Appended to previous track

Used output format : Internal WAV Routines
Sample format : 44.100 Hz; 16 Bit; Stereo


TOC of the extracted CD

Track | Start | Length | Start sector | End sector
---------------------------------------------------------
1 | 0:00.00 | 22:27.68 | 0 | 101092


Track 1

Filename C:\\\\Documents and Settings\\\\Stefano\\\\Desktop\\\\KEITH EMERSON & THE NICE - Live At Glasgow 2002 (2003 3cd) [eac flac]\\\\KE&Nice cd3\\\\01 Interview with Chris Welch.wav

Pre-gap length 0:00:02.00

Peak level 99.8 %
Track quality 100.0 %
Test CRC 662B00BF
Copy CRC 662B00BF
Track not present in AccurateRip database
Copy OK


None of the tracks are present in the AccurateRip database

No errors occurred

End of status report
[/code]

KEITH EMERSON & THE NICE   Vivacitas Live At Glasgow 2002 (2003 3cd)[Eac Flac][colombo bt org] preview 3

[color=blue]CD1
01.america/rondo
02.little arabella
03.she belongs to me
04.the cry of eugene
05.hang on to a dream
06.country pie
07.karella suite

CD2
01.a blade of glass
02.a cajun alley
03.tarkus
04.hoe down
05.fanfare for the common man
06.honky tonk blues

CD3
01.interviw with Chris Welch 2001
[/color]

KEITH EMERSON & THE NICE   Vivacitas Live At Glasgow 2002 (2003 3cd)[Eac Flac][colombo bt org] preview 4

KEITH EMERSON & THE NICE   Vivacitas Live At Glasgow 2002 (2003 3cd)[Eac Flac][colombo bt org] preview 6

[font=Verdana]
KEITH EMERSON & THE NICE
Vivacitas – Live At Glascow 2002 (Sanctuary 2003)
Dopo 32 anni ecco la reunion dei Nice, la band di Emerson pre ELP. Il fine intreccio di jazz, progressive, blues e musica classica funziona ancora e i Nice offrono qualcosa di convincente. Le parti vocali risentono degli anni passati, ma le prove strumentali di Emerson, Davison e Jackson restano su alti livelli, grazie anche all’aiuto del chitarrista Dave Kilminster (già con i Quango di John Wetton e Carl Palmer). Il cd1 parte con il super classico dei Nice America/Rondò e prosegue con il bel jazz/blues di Little Arabella. Schegge progressive in She Belongs To Me, The Cry of Eugene, Hang On To A Dream, mentre in Country Pie e Karelia Suite si capisce quanto gli Emerson Lake & Palmer furono aiutati dall’esperienza Nice. Il cd2 si apre con due deliziosi strumentali di Emerson al pianoforte a cui segue la rilettura di 4 classici degli ELP: Tarkus, Hoedown, Fanfare For The Common Man e Honky Tonk Train Blues. Qui però i Nice non c’entrano granché, dato che Emerson si fa aiutare da tre session men. Ottime prove di grandi strumentisti che tuttavia non riescono a trovare riparo dall’indulgenza. Il terzo cd contiene un’intervista ai Nice condotta dal giornalista inglese Chris Welch. Non è un disco per chi intende avvicinarsi per la prima volta all’universo di Keith Emerson, ma piuttosto per chi già si è fatto irretire dalla maestosa grandezza del più grande keyboard player del rock.

(note di nonantolaslim maggio08)
[/font]

[url=KEITH EMERSON & THE NICE   Vivacitas Live At Glasgow 2002 (2003 3cd)[Eac Flac][colombo bt org] preview 5

[font=Verdana]SEED:
in up da subito
weekend 24/24 tranne imprevisti
giorni feriali dalle 20 alle 8
in seed fino a 10 completati
banda 20/40 kbs[/font]

related torrents

Torrent name

health leech seeds Size
 

comments (0)

Main Menu