Rock

TISHAMINGO Tishamingo 2002 (Eac Flac Lossless)[colombo bt org]

  • Download 5x Faster
  • Download torrent
  • Direct Download
  • Rate this torrent +  |  -
TISHAMINGO Tishamingo 2002 (Eac Flac Lossless)[colombo bt org]

Anonymous and Free Direct Download 300GB+


Torrent info

Name:TISHAMINGO Tishamingo 2002 (Eac Flac Lossless)[colombo bt org]

Total Size: 374.74 MB

Magnet: Magnet Link

Seeds: 0

Leechers: 1

Stream: Watch Online @ Movie4u

Last Updated: 2016-02-03 04:11:57 (Update Now)

Torrent added: 2009-08-30 03:59:42



VPN For Torrents

Torrent Files List


01 First Of The Day.flac (Size: 374.74 MB) (Files: 20)

 01 First Of The Day.flac

832.39 KB

 02 Whiskey State Of Mind.flac

24.66 MB

 03 People See.flac

20.23 MB

 04 Lazy Susan.flac

41.48 MB

 05 Way Back Home.flac

34.74 MB

 06 Lickety Split.flac

26.63 MB

 07 Palmer March.flac

17.30 MB

 08 Tradition.flac

44.99 MB

 09 Little Red.flac

29.83 MB

 10 Pete's Lament.flac

49.56 MB

 11 Turry & The Tellico Militia.flac

43.14 MB

 12 El Perro Frio.flac

6.42 MB

 13 Last Ride.flac

31.40 MB

 CD201.jpg

236.73 KB

 fronte retro202.jpg

1.86 MB

 interno203.jpg

1.45 MB

 Tishamingo - Tishamingo.log

5.37 KB

 Tishamingo - Tishamingo.m3u

0.81 KB

 Tishamingo 1.ffp

0.82 KB

 Tishamingo.cue

1.83 KB
 

tracker

leech seeds
 

Torrent description




"TISHAMINGO - Tishamingo - (2002)"








Titolo: TISHAMINGO "Tishamingo"(2002)
Etichetta: John Keane / Tishamingo 2002
Genere: Southern Rock
Formato: Flac Level 8
Copertine: sì
Fonte: CD originale
Edizione - digipack 2002


Codice:
Exact Audio Copy V0.99 prebeta 3 from 28. July 2007

EAC extraction logfile from 13. April 2008, 12:03

Tishamingo / Tishamingo

Used drive : PLEXTOR DVDR PX-800A Adapter: 1 ID: 0

Read mode : Secure
Utilize accurate stream : Yes
Defeat audio cache : Yes
Make use of C2 pointers : No

Read offset correction : 48
Overread into Lead-In and Lead-Out : No
Fill up missing offset samples with silence : Yes
Delete leading and trailing silent blocks : No
Null samples used in CRC calculations : No
Used interface : Installed external ASPI interface
Gap handling : Appended to previous track

Used output format : Internal WAV Routines
Sample format : 44.100 Hz; 16 Bit; Stereo


TOC of the extracted CD

Track | Start | Length | Start sector | End sector
---------------------------------------------------------
1 | 0:00.00 | 0:13.35 | 0 | 1009
2 | 0:13.35 | 3:30.47 | 1010 | 16806
3 | 3:44.07 | 2:56.55 | 16807 | 30061
4 | 6:40.62 | 6:12.28 | 30062 | 57989
5 | 12:53.15 | 5:21.45 | 57990 | 82109
6 | 18:14.60 | 3:44.72 | 82110 | 98981
7 | 21:59.57 | 2:52.48 | 98982 | 111929
8 | 24:52.30 | 6:25.07 | 111930 | 140811
9 | 31:17.37 | 4:21.13 | 140812 | 160399
10 | 35:38.50 | 7:38.10 | 160400 | 194759
11 | 43:16.60 | 6:26.27 | 194760 | 223736
12 | 49:43.12 | 1:23.08 | 223737 | 229969
13 | 51:06.20 | 4:52.22 | 229970 | 251891


Track 1

Filename C:\Documents and Settings\Stefano\Desktop\Tishamingo 1\01 First Of The Day.wav

Pre-gap length 0:00:02.00

Peak level 30.0 %
Track quality 100.0 %
Test CRC 102BEEF5
Copy CRC 102BEEF5
Accurately ripped (confidence 2) [3826F56F]
Copy OK

Track 2

Filename C:\Documents and Settings\Stefano\Desktop\Tishamingo 1\02 Whiskey State Of Mind.wav

Peak level 99.9 %
Track quality 100.0 %
Test CRC 6883561B
Copy CRC 6883561B
Accurately ripped (confidence 2) [0A78FA63]
Copy OK

Track 3

Filename C:\Documents and Settings\Stefano\Desktop\Tishamingo 1\03 People See.wav

Peak level 99.9 %
Track quality 100.0 %
Test CRC 358A8A9B
Copy CRC 358A8A9B
Accurately ripped (confidence 2) [23712329]
Copy OK

Track 4

Filename C:\Documents and Settings\Stefano\Desktop\Tishamingo 1\04 Lazy Susan.wav

Peak level 99.9 %
Track quality 100.0 %
Test CRC 844AE039
Copy CRC 844AE039
Accurately ripped (confidence 2) [5E074BFD]
Copy OK

Track 5

Filename C:\Documents and Settings\Stefano\Desktop\Tishamingo 1\05 Way Back Home.wav

Peak level 99.9 %
Track quality 100.0 %
Test CRC A189BA36
Copy CRC A189BA36
Accurately ripped (confidence 2) [653949EA]
Copy OK

Track 6

Filename C:\Documents and Settings\Stefano\Desktop\Tishamingo 1\06 Lickety Split.wav

Peak level 99.9 %
Track quality 100.0 %
Test CRC BDEC2969
Copy CRC BDEC2969
Accurately ripped (confidence 2) [36A047D7]
Copy OK

Track 7

Filename C:\Documents and Settings\Stefano\Desktop\Tishamingo 1\07 Palmer March.wav

Peak level 99.3 %
Track quality 100.0 %
Test CRC 9AE153D0
Copy CRC 9AE153D0
Accurately ripped (confidence 2) [39D5492B]
Copy OK

Track 8

Filename C:\Documents and Settings\Stefano\Desktop\Tishamingo 1\08 Tradition.wav

Peak level 99.9 %
Track quality 100.0 %
Test CRC F4DE8306
Copy CRC F4DE8306
Accurately ripped (confidence 2) [6F86AFDF]
Copy OK

Track 9

Filename C:\Documents and Settings\Stefano\Desktop\Tishamingo 1\09 Little Red.wav

Peak level 99.9 %
Track quality 100.0 %
Test CRC 85465F26
Copy CRC 85465F26
Accurately ripped (confidence 2) [4EDB38A8]
Copy OK

Track 10

Filename C:\Documents and Settings\Stefano\Desktop\Tishamingo 1\10 Pete's Lament.wav

Pre-gap length 0:00:01.10

Peak level 99.9 %
Track quality 100.0 %
Test CRC E6E2757E
Copy CRC E6E2757E
Accurately ripped (confidence 2) [B763BACC]
Copy OK

Track 11

Filename C:\Documents and Settings\Stefano\Desktop\Tishamingo 1\11 Turry & The Tellico Militia.wav

Peak level 99.9 %
Track quality 100.0 %
Test CRC 0A81567F
Copy CRC 0A81567F
Accurately ripped (confidence 2) [989BF2CE]
Copy OK

Track 12

Filename C:\Documents and Settings\Stefano\Desktop\Tishamingo 1\12 El Perro Frio.wav

Peak level 66.3 %
Track quality 100.0 %
Test CRC 8C8CA9A5
Copy CRC 8C8CA9A5
Accurately ripped (confidence 2) [F79EAE16]
Copy OK

Track 13

Filename C:\Documents and Settings\Stefano\Desktop\Tishamingo 1\13 Last Ride.wav

Peak level 99.9 %
Track quality 100.0 %
Test CRC DDD1AC4A
Copy CRC DDD1AC4A
Accurately ripped (confidence 2) [25B1DAA9]
Copy OK


All tracks accurately ripped

No errors occurred

End of status report





01.First of the day
02.Whiskey state of mind
03.People see
04.Lazy Susan
05.Way back home
06.Lickety split
07.Palmer march
08.Tradition
09.Little red
10.Pete's lament
11.Turry & the Tellico militia
12.El perro frio
13.Last ride






Arrivano dalla Georgia i TISHAMINGO, l’unico nuovo gruppo dedito al southern rock a non sfigurare con i grandi nomi quali ALLMAN BROTHERS e LYNYRD SKYNYRD.
Il loro primo disco è del 2002 ed è un appassionato omaggio al southern rock, all’hard rock e al blues. La voce e la chitarra di Cameron Williams, la slide guitar di Jess Franklin, la perfetta fusione ritmica di Stephen Pivey e Richard Proctor fanno sì che WHISKEY STATE OF MIND, LAZY SUSAN e il resto delle canzoni risplendano nel calore del rock più vero.

Chi scrive li ricorda dal vivo un anno fa a Reggio Emilia: concerto sobrio ma al contempo entusiasmante, impreziosito da ottime versioni di CHEST FEVER (della Band) e MISTY MOUNTAIN HOP (dei Led Zeppelin).

Non tutti i gruppi sconosciuti meriterebbero i grandi palcoscenici, come si legge spesso negli articoli di giornalisti pigri che sprofondano nei luoghi comuni, ma in tutta onestà credo che i TISHAMINGO possano ambire ad un posto nell’empireo della musica del sud degli Stati Uniti.
Senza dubbio sanno com’è che va fatto il rock.

Nelle mattine autunnali, ascoltati in macchina mentre si va al lavoro, sanno addolcire le algide malinconie portatrici degli umori invernali; nelle mattine primaverili viceversa sanno preannunciare lo spirito scanzonato dell'estate che sta arrivando. Un gruppo quindi per tutte le stagioni. Da non perdere.

related torrents

Torrent name

health leech seeds Size
 


comments (0)

Main Menu