War

Hart's War 2002 1080p Bluray DUAL x264 BOZX

  • Download 5x Faster
  • Download torrent
  • Direct Download
  • Rate this torrent +  |  -
Hart's War 2002 1080p Bluray DUAL x264 BOZX

Free and Direct Download with Usenet 300GB+ free


Torrent info

Name:Hart's War 2002 1080p Bluray DUAL x264 BOZX

Total Size: 7.46 GB

Magnet: Magnet Link

Seeds: 0

Leechers: 0

Stream: Watch Online @ Movie4u

Last Updated: 2010-09-22 07:44:22 (Update Now)

Torrent added: 2009-08-30 03:49:37




Torrent Files List


Hart's.War.2002.1080p.Bluray.x264.DUAL-HDTOR.mkv (Size: 7.46 GB) (Files: 1)

 Hart's.War.2002.1080p.Bluray.x264.DUAL-HDTOR.mkv

7.46 GB
 

Announce URL: http://tracker.thepiratebay.org/announce

Torrent description

Genre: Drama | War
Release Date: 7 June 2002 (Turkey)
User Rating: 6.2/10 6.2/10 16,787 votes
Language: English
Country: USA
Runtime: 125 min
Plot Outline: A law student becomes a lieutenant during World War II, is captured and asked to defend a black prisoner of war falsely accused of murder. full summary | add synopsis
IMDB Link: http://www.imdb.com/title/tt0251114/


General
Full name: E: DUALHart DSG's. War.2002.1080p.Bluray.x264.DUAL-HDTOR.mkv
Format: Matroska
File Size: 7:46 GIB
Duration: 2s 4dk
Global bit rate: 8 557 Kbps
Code date: 2009-05-31 19:07:51 UTC
Construction application: mkvmerge v2.4.0 ( 'Fumbling Towards Ecstasy) built on Oct 11 2008 20:13:15
Construction of libraries: libebml v0.7.7 + libmatroska v0.8.1

Image
ID: 1
Format: AVC
Format / Info: Advanced Video Codec
Style Profile: [email protected]
Format settings, CABAC: Yes
Format settings, ReFrames: 3 frames
Çoklamal? mode: Container profile = [email protected]
Kode ID: V_MPEG4/ISO/AVC
Duration: 2s 4dk
Bit rate: 7 104 Kbps
Low bit rate: 7 451 Kbps
Width: 1 920 pixels
Height: 816 pixels
Image aspect ratio: 2.35
Frame rate: 23,976 frames / s
Resolution: 24 bit
Renkölçüm: 4:2:0
Scan type: Progressive
Bit / (Pixel * Frame): 0189
Flow Size: 6:19 GIB (83%)
Construction of the library: x264 core 67 r1153M 7b6ce6a
Encoding settings: cabac = 1 / ref = 3 / deblock = 1: -1: -1 / analyze = 0x3: 0x113 / me = hex / subme = 5 / psy_rd = 0.0:0.0 / mixed_ref = 1 / me_range = 12 / chroma_me = 1 / Trellis = 0 / 8x8dct = 1 / cqm = 0 / deadzone = 21.11 / chroma_qp_offset = 0 / threads = 6 / nr = 0 / decimate = 1 / mbaff = 0 / bframes = 3 / b_pyramid = 0 / b_adapt = 1 / b_bias = 0 / direct = 3 / wpredb = 1 / keyint = 24 / keyint_min = 2 / scenecut = 40 / rc = 2pass / bitrate = 7451 / ratetol = 1.0 / qcomp = 0.50 / qpmin = 10 / qpmax = 51 / qpstep = 4 / cplxblur = 20.0 / qblur = 0.5 / vbv_maxrate = 40000 / vbv_bufsize = 30000 / ip_ratio = 1.10 / pb_ratio = 1.10 / aq = 1:1.00

Voice # 1
ID: 2
Format: AC-3
Format / Info: Audio Coding 3
Kode ID: A_AC3
Duration: 2s 4dk
Bit rate mode: Constant
Bit rate: 640 Kbps
Channel: 6 channel
Channel positions: Front: LCR, Surround: LR, LFE
Sampling rate: 48.0 KHz
Stream size: 571 MiB (7%)
Title: HDTor English
Language: English

Voice # 2
ID: 3
Format: AC-3
Format / Info: Audio Coding 3
Kode ID: A_AC3
Duration: 2s 4dk
Bit rate mode: Constant
Bit rate: 640 Kbps
Channel: 2 channels
Channel positions: L R
Sampling rate: 48.0 KHz
Image delay: 24ms
Stream size: 571 MiB (7%)
Title: Turkish HDTor
Language: English

Text # 1
ID: 4
Format: UTF-8
Kode ID: S_TEXT/UTF8
Kode ID / Info: UTF-8 Plain Text
Title: English

Text # 2
ID: 5
Format: UTF-8
Kode ID: S_TEXT/UTF8
Kode ID / Info: UTF-8 Plain Text
Title: Turkish




pls seed back and help others.............

related torrents

Torrent name

health leech seeds Size
 

comments (0)

Main Menu