War

Glory(1989) DVDRip XviD ~ Smeet

  • Download 5x Faster
  • Download torrent
  • Direct Download
  • Rate this torrent +  |  -
Glory(1989) DVDRip XviD ~ Smeet

Anonymous and Direct Download 300GB+ free


Torrent info

Name:Glory(1989) DVDRip XviD ~ Smeet

Total Size: 699.67 MB

Magnet: Magnet Link

Seeds: 0

Leechers: 0

Stream: Watch Online @ Movie4u

Last Updated: 2011-04-03 05:04:14 (Update Now)

Torrent added: 2009-08-30 03:47:44




Torrent Files List


Glory(1989)-DVDRip-XviD ~ Smeet.avi (Size: 699.67 MB) (Files: 3)

 Glory(1989)-DVDRip-XviD ~ Smeet.avi

699.58 MB

 Glory(1989)-DVDRip-XviD ~ Smeet.srt

86.00 KB

 smeet.nfo

6.94 KB
 

Announce URL: http://ictorrent.com:2710/announce

Torrent description


################## TM
##^^^^^^^^^^^^^^^^####
############## #^^^^^^^^^^^^^^^^^^^##
###### #### #########^^^^^# #^^^^^#########^^^^^#
###### ####### ###########^^^# #^^^^^^^^^^^^^#^^^^^#
####### ####### ############^^## #^^^^^^^^^^^^^#^^^^^#
################################# ############^^^###^^^^^^^^^^^^^#^^^^^#
############################################^#^^#^^^^^^^^^^^^^^^^#^^^^^#
#####################################^^^^^^^^#^^#########^^^#######^^^^#####
####################################^^^^^^^^^##^^^^^^^^^##^^#^^^^^^^^^^^^^^##
####################################^^^^^^^^^^###^^^^^^^^#^^#^^^^^^^^^^^^^^^##
######################### ##########^^^^^####^^##^^^^^^^^#^^#^^^^^^^^^^^^^^^##
####################################^########^^#^#########^^######^^^^^######
#############################################^^#^#^^^^^^^^^^^^^^^#^^^^^#
##############################################^#^#^^^^^^^^^^^^^^^#^^^^^#
##############################################^#^#^^^^^^^^^^^^^^^#^^^^^#
##################################^^^^^^^^^^#^#^^^^^^^^^^^^^^^#^^^^^#
############################################^^^#^##^^^^^^^^^^^^^^#^^^^^#
##############################################^#^^^###^^^^^^^^^^^#^^^^^#
#################################################^^^^#^^^^^^^^^^^#^^^^^#
###############################################^######^^^^^^^^^^^#^^^^^#
###################### ###### ##############^^^^^^^^^^^########^^^^^#
###################### ###### ##############^^##^^^^^^^# #^^^^^^#
###################### ###### ##################^^^^^^^# #^^^^^^#
############## ############### ######^^# ########
############## ############### ###
#############
MEANS QUALITY

=======================================================
= Glory (1989) =
=======================================================

|##############################################################################|
| |
|GENERAL INFORMATION |
|=================== |
|Format : AVI |
|Format/Info : Audio Video Interleave |
|Format profile : OpenDML |
|File size : 700 MiB |
|Duration : 1h 57mn |
|Overall bit rate : 835 Kbps |
|Language : English |
|SUBTITLE : English |
|GENRE : Drama | History | War |
|IMDB LINK : http://www.imdb.com/title/tt0097441/ |
|IMDB RATING : 8.0/10 |
|RIPPER : SMEET |
|##############################################################################|

|##############################################################################|
| |
|Video |
|Format : MPEG-4 Visual |
|Format settings, Matrix : Default (H.263) |
|Codec ID : XVID |
|Codec ID/Hint : XviD |
|Duration : 1h 57mn |
|Width : 608 pixels |
|Height : 464 pixels |
|Display aspect ratio : 4/3 |
|Frame rate : 25.000 fps |
|Resolution : 24 bits |
|Colorimetry : 4:2:0 |
|Scan type : Progressive |
|Bits/(Pixel*Frame) : 0.102 |
|Stream size : 603 MiB (86%) |
|Writing library : XviD 1.2.1 (UTC 2008-12-04) rter. |
|##############################################################################|
|Audio |
|Format : MPEG Audio |
|Format version : Version 1 |
|Format profile : Layer 3 |
|Codec ID : 55 |
|Codec ID/Hint : MP3 |
|Duration : 1h 57mn |
|Bit rate mode : Constant |
|Bit rate : 112 Kbps |
|Channel(s) : 2 channels |
|Sampling rate : 44.1 KHz |
|Resolution : 16 bits |
|Stream size : 93.8 MiB (13%) |
|Alignment : Aligned on interleaves |
|Interleave, duration : 871 ms (21.79 video frames) |
|Interleave, preload duration : 208 ms |
|Title : smeet~glory T80 3_2ch 448Kbps DELAY 0msY 0m|
|Writing library : LAME3.98r |
|Encoding settings : -m j -V 4 -q 2 -lowpass 15.6 -b 112 |
|##############################################################################|
www.AhaShare.Com


related torrents

Torrent name

health leech seeds Size
 


comments (0)

Main Menu