War

Che Part 1 and 2 2008 DVDrip oddball English subtitles

  • Download 5x Faster
  • Download torrent
  • Direct Download
  • Rate this torrent +  |  -
Che Part 1 and 2 2008 DVDrip oddball English subtitles

Anonymous and Free Direct Download 300GB+


Torrent info

Name:Che Part 1 and 2 2008 DVDrip oddball English subtitles

Total Size: 3.26 GB

Magnet: Magnet Link

Seeds: 0

Leechers: 0

Stream: Watch Online @ Movie4u

Last Updated: 0000-00-00 00:00:00 (Update Now)

Torrent added: 2009-08-30 03:29:17



VPN For Torrents

Torrent Files List


Che Part 1 - 2008 oddball.avi (Size: 3.26 GB) (Files: 3)

 Che Part 1 - 2008 oddball.avi

1.39 GB

 Che Part 2 - 2008 oddball.avi

1.87 GB

 Reed Me .txt

0.06 KB
 

Announce URL:

Torrent description

Che is a two-part 2008 biopic about Marxist revolutionary Ernesto "Che" Guevara directed by Steven Soderbergh and starring Benicio del Toro as the title character. Part one is entitled The Argentine and focuses on the Cuban revolution from the landing of Fidel Castro, Guevara and other revolutionaries on the Caribbean island to their successful toppling of the dictatorship of Fulgencio Batista two years later. Part two, entitled Guerrilla, focuses on Che's futile attempt to bring revolution to Bolivia and his ill-fated demise. Both parts are shot in a cin?ma v?rit? style, but each has different approaches to narrative linearity, camerawork, and aspect ratios; this duality is intended to be reflective of the two military campaigns' divergent outcomes.

Filmmaker Terrence Malick originally worked on a screenplay to only depict Guevara's attempts to start a revolution in Bolivia, but when financing fell through, Malick went on to another project and Soderbergh agreed to direct. He realized that there was no context for Guevara's actions in Bolivia and decided that his participation in the Cuban revolution and his appearance at the United Nations in 1964 should also be depicted in the film. Peter Buchman was hired to write the screenplay and result was so long that Soderbergh decided to divide the film into two parts: one chronicling Cuba and other depicting Bolivia. Filmmakers decided to shoot the film almost entirely in Spanish to give it credibility, but the decision also made it difficult to finance with Hollywood studios. Soderberg's project was ultimately financed with foreign money. Soderbergh shot the films back-to-back in the beginning of July 2007 with Guerrilla shot first in Spain for 39 days and The Argentine shot in Puerto Rico and Mexico for 39 days.

Che was screened as a single film at the 2008 Cannes Film Festival. There, it received mixed reviews, and Del Toro won the Best Actor Award. IFC Films, which holds all North American rights to Che, initially released the combined film for one week on December 12, 2008 in New York City and Los Angeles in order to qualify for the year's Academy Awards. Strong box office performance led to the "special roadshow edition" being extended in New York and Los Angeles and later expanded into additional markets. The films were released in 25 markets beginning January 16 and 22 both as a single film and as two separate films, titled Che Part 1: The Argentine and Che Part 2: Guerrilla, and distribution expanded further after that. IFC released the films via video on demand on January 21 through all major U.S. cable and satellite providers in both standard and high definition versions. The film is slated for DVD release in the UK on June 29, 2009 ` General
Complete name : Che Part 1
Format : AVI
Format/Info : Audio Video Interleave
File size : 1.39 GiB
Duration : 2h 8mn
Overall bit rate : 1 549 Kbps

Video
Format : MPEG-4 Visual
Format profile : Streaming [email protected]
Format settings, BVOP : Yes
Format settings, QPel : No
Format settings, GMC : No warppoints
Format settings, Matrix : Default
Muxing mode : Packed bitstream
Codec ID : XVID
Codec ID/Hint : XviD
Duration : 2h 8mn
Bit rate : 1 345 Kbps
Width : 1 024 pixels
Height : 582 pixels
Display aspect ratio : 16/9
Frame rate : 29.970 fps
Resolution : 24 bits
Colorimetry : 4:2:0
Scan type : Progressive
Bits/(Pixel*Frame) : 0.075
Stream size : 1.21 GiB (87%)
Writing library : XviD 1.1.0 (UTC 2005-11-22)

Audio
Format : MPEG Audio
Format version : Version 1
Format profile : Layer 3
Codec ID : 55
Codec ID/Hint : MP3
Duration : 2h 8mn
Bit rate mode : Constant
Bit rate : 192 Kbps
Channel(s) : 2 channels
Sampling rate : 44.1 KHz
Resolution : 16 bits
Video delay : 26ms
Stream size : 177 MiB (12%)
Alignment : Split accross interleaves
Interleave, duration : 33 ms (1.00 video frame)
Title : Audio Stream ` General
Complete name : Che Part 2
Format : AVI
Format/Info : Audio Video Interleave
File size : 1.87 GiB
Duration : 2h 9mn
Overall bit rate : 2 070 Kbps

Video
Format : MPEG-4 Visual
Format profile : Streaming [email protected]
Format settings, BVOP : Yes
Format settings, QPel : No
Format settings, GMC : No warppoints
Format settings, Matrix : Default
Muxing mode : Packed bitstream
Codec ID : XVID
Codec ID/Hint : XviD
Duration : 2h 9mn
Bit rate : 1 866 Kbps
Width : 1 024 pixels
Height : 582 pixels
Display aspect ratio : 16/9
Frame rate : 29.970 fps
Resolution : 24 bits
Colorimetry : 4:2:0
Scan type : Progressive
Bits/(Pixel*Frame) : 0.104
Stream size : 1.69 GiB (90%)
Writing library : XviD 1.1.0 (UTC 2005-11-22)

Audio
Format : MPEG Audio
Format version : Version 1
Format profile : Layer 3
Codec ID : 55
Codec ID/Hint : MP3
Duration : 2h 9mn
Bit rate mode : Constant
Bit rate : 192 Kbps
Channel(s) : 2 channels
Sampling rate : 44.1 KHz
Resolution : 16 bits
Video delay : 26ms
Stream size : 178 MiB (9%)
Alignment : Split accross interleaves
Interleave, duration : 33 ms (1.00 video frame)
Title : Audio Stream ` For more oddball torrents http://thepiratebay.org/user/oddball-links

related torrents

Torrent name

health leech seeds Size
 


comments (0)

Main Menu