War

Charlotte Gray (Cate Blanchett Billy Crudup)(2001)[DvdRip Xvid English]

  • Download 5x Faster
  • Download torrent
  • Direct Download
  • Rate this torrent +  |  -

Torrent info

Name:Charlotte Gray (Cate Blanchett Billy Crudup)(2001)[DvdRip Xvid English]

Total Size: 0.98 GB

Magnet: Magnet Link

Seeds: 0

Leechers: 0

Stream: Watch Full Movie @ Movie4u

Last Updated: 2014-08-12 14:55:20 (Update Now)

Torrent added: 2009-08-30 03:28:30



VPN For Torrents

Torrent Files List


Charlotte Gray.avi (Size: 0.98 GB) (Files: 2)

 Charlotte Gray.avi

0.98 GB

 Torrent downloaded from Demonoid.com.txt

0.05 KB
4div c݇бs-ar2 h1P1ȉ11

Announce URL:

Torrent description


Charlotte Gray - (Cate Blanchett - Billy Crudup)(2001)[DvdRip-Xvid-English]

Starring

Cate Blanchett,
Billy Crudup,
Michael Gambon,
Rupert Penry-Jones,
Anton Lesser,
James Fleet,
Ron Cook,
John Benfield

General
Complete name : Charlotte Gray.avi
Format : AVI
Format/Info : Audio Video Interleave
File size : 1 001 MiB
Duration : 1h 56mn
Overall bit rate : 1 202 Kbps
Writing application : VirtualDubMod 1.5.4.1 (build 2178/release)
Writing library : VirtualDubMod build 2178/release

Video
ID : 0
Format : MPEG-4 Visual
Format profile : [email protected]
Format settings, BVOP : No
Format settings, QPel : No
Format settings, GMC : No warppoints
Format settings, Matrix : Default (H.263)
Codec ID : XVID
Codec ID/Hint : XviD
Duration : 1h 56mn
Bit rate : 747 Kbps
Width : 416 pixels
Height : 240 pixels
Display aspect ratio : 16/9
Frame rate : 25.000 fps
Resolution : 24 bits
Colorimetry : 4:2:0
Scan type : Progressive
Bits/(Pixel*Frame) : 0.299
Stream size : 622 MiB (62%)
Writing library : XviD 1.0.1 (UTC 2004-06-05)

Audio
ID : 1
Format : AC-3
Format/Info : Audio Coding 3
Codec ID : 2000
Duration : 1h 56mn
Bit rate mode : Constant
Bit rate : 448 Kbps
Channel(s) : 6 channels
Channel positions : Front: L C R, Surround: L R, LFE
Sampling rate : 48.0 KHz
Stream size : 373 MiB (37%)
Alignment : Split accross interleaves
Interleave, duration : 96 ms (2.40 video frames)
Interleave, preload duration : 96 ms


IMDB Rating =
6.3/10

Plot

1943. The world is at war.Charlotte Gray, a young Scottish woman, is parachuted behing enemy lins in southen france. Only she knows she has a dual mission. Officallly she has been recrutied by the British Gorvenment on a special operation to liaise with the local Resistance group, who are using guerrilla tacktics against the occupying German Army. UnOffically, she is searching for her lover, Peter, an English armyman missing in action after his plane is shot down.
As Charlotte becomes more deeply involved with the Resistance fighters she realises that her love of France and its people will change her forever.


Review From IMDB

If nothing else, the superb cinematography makes Charlotte Grey a winner. The picture is filmed through a creative and sensitive eye with wonderful angles, evocative moods and sensitive textures and shades. The rain and snow outside the train window in the opening scenes is somehow just so right. But photography aside, this is a gripping and well acted work that will satisfy fans of both war movies and love stories
. Michael Gambon gives an Oscar worthy performance. It's also so nice to see a film that does not have one of those dreadful syrupy and impractical happy endings. Not that it's a totally sad ending. Call it a bitter sweet ending. In any case this film is an absolute delight from the titles to the closing scene.

related torrents

Torrent name

health leech seeds Size
 


comments (0)

Main Menu

 

script data-cfasync="false" src="//d2ghscazvn398x.cloudfront.net/?cshgd=690275">