Rock

JOE COCKER With A Little Help CORRECTED VERSION (Remaster 1999)(1969)[Eac Flac][colombo bt org]

  • Download 5x Faster
  • Download torrent
  • Direct Download
  • Rate this torrent +  |  -

Torrent info

Name:JOE COCKER With A Little Help CORRECTED VERSION (Remaster 1999)(1969)[Eac Flac][colombo bt org]

Total Size: 279.80 MB

Magnet: Magnet Link

Seeds: 0

Leechers: 0

Stream: Watch Online @ Movie4u

Last Updated: 2014-02-12 05:22:49 (Update Now)

Torrent added: 2009-08-30 03:25:31




Torrent Files List


01 Feeling Alright.flac (Size: 279.80 MB) (Files: 22)

 01 Feeling Alright.flac

26.70 MB

 02 Bye Bye Blackbird.flac

21.33 MB

 03 Change In Louise.flac

21.96 MB

 04 Marjorine.flac

16.04 MB

 05 Just Like A Woman.flac

32.80 MB

 06 Do I Still Figure In Your Life .flac

24.38 MB

 07 Sandpaper Cadillac.flac

20.23 MB

 08 Don't Let Me Be Misunderstood.flac

28.54 MB

 09 With A Little Help From My Friends.flac

31.90 MB

 10 I Shall Be Released.flac

26.69 MB

 11 The New Age Of Lily.flac

11.25 MB

 12 Something's Coming On.flac

13.76 MB

 JC - cd285.jpg

282.57 KB

 JC - fronte 288.jpg

1.43 MB

 JC - interno 289.jpg

0.98 MB

 JC - retro a 286.jpg

646.97 KB

 JC - retro b287.jpg

889.08 KB

 JOE COCKER - With A Little Help (Remaster 1999)(1969) [eac Flac].ffp

0.84 KB

 Joe Cocker - With A Little Help From My Friends.log

6.08 KB

 Joe Cocker - With A Little Help From My Friends.m3u

0.91 KB

 Joe cocker.txt

0.54 KB

 With A Little Help From My Friends.cue

2.10 KB
 

Announce URL:

Torrent description

JOE COCKER   With A Little Help CORRECTED VERSION (Remaster 1999)(1969)[Eac Flac][colombo bt org] preview 0

[color=blue][size=18pt]\"JOE COCKER - With A Little help From My Friends (remaster 1999)(1969)[Eac Flac]\"[/size][/color]

JOE COCKER   With A Little Help CORRECTED VERSION (Remaster 1999)(1969)[Eac Flac][colombo bt org] preview 1

JOE COCKER   With A Little Help CORRECTED VERSION (Remaster 1999)(1969)[Eac Flac][colombo bt org] preview 2

[color=blue][font=Verdana]Titolo: JOE COCKER - With A Little Help From My Friends
Anno: 1969
Etichetta: AM Records / UNIVERSAL
Genere: Rock
Formato: Flac Level 8
Cover: sì (scansioni originali)
Fonte: CD originale
Edizione: AM Records - Remaster 1999 - Made in EU
[/font][/color]

[code]Exact Audio Copy V0.99 prebeta 3 from 28. July 2007

EAC extraction logfile from 7. May 2008, 21:31

Joe Cocker / With A Little Help From My Friends

Used drive : PLEXTOR DVDR PX-800A Adapter: 1 ID: 0

Read mode : Secure
Utilize accurate stream : Yes
Defeat audio cache : Yes
Make use of C2 pointers : No

Read offset correction : 48
Overread into Lead-In and Lead-Out : No
Fill up missing offset samples with silence : Yes
Delete leading and trailing silent blocks : No
Null samples used in CRC calculations : No
Used interface : Installed external ASPI interface
Gap handling : Appended to previous track

Used output format : Internal WAV Routines
Sample format : 44.100 Hz; 16 Bit; Stereo


TOC of the extracted CD

Track | Start | Length | Start sector | End sector
---------------------------------------------------------
1 | 0:00.00 | 4:13.72 | 0 | 19046
2 | 4:13.72 | 3:30.13 | 19047 | 34809
3 | 7:44.10 | 3:25.12 | 34810 | 50196
4 | 11:09.22 | 2:40.08 | 50197 | 62204
5 | 13:49.30 | 5:19.40 | 62205 | 86169
6 | 19:08.70 | 4:01.57 | 86170 | 104301
7 | 23:10.52 | 3:19.28 | 104302 | 119254
8 | 26:30.05 | 4:44.25 | 119255 | 140579
9 | 31:14.30 | 5:14.12 | 140580 | 164141
10 | 36:28.42 | 4:41.53 | 164142 | 185269
11 | 41:10.20 | 2:19.07 | 185270 | 195701
12 | 43:29.27 | 2:15.20 | 195702 | 205846


Track 1

Filename C:\\Documents and Settings\\Stefano\\Desktop\\JOE COCKER - With A Little Help (Remaster 1999)(1969) [eac Flac]\\01 Feeling Alright.wav

Pre-gap length 0:00:02.00

Peak level 88.4 %
Track quality 100.0 %
Test CRC 6174514F
Copy CRC 6174514F
Track not present in AccurateRip database
Copy OK

Track 2

Filename C:\\Documents and Settings\\Stefano\\Desktop\\JOE COCKER - With A Little Help (Remaster 1999)(1969) [eac Flac]\\02 Bye Bye Blackbird.wav

Pre-gap length 0:00:03.10

Peak level 88.3 %
Track quality 99.9 %
Test CRC 0DCE5530
Copy CRC 0DCE5530
Track not present in AccurateRip database
Copy OK

Track 3

Filename C:\\Documents and Settings\\Stefano\\Desktop\\JOE COCKER - With A Little Help (Remaster 1999)(1969) [eac Flac]\\03 Change In Louise.wav

Pre-gap length 0:00:02.45

Peak level 100.0 %
Track quality 100.0 %
Test CRC A5CDFA81
Copy CRC A5CDFA81
Track not present in AccurateRip database
Copy OK

Track 4

Filename C:\\Documents and Settings\\Stefano\\Desktop\\JOE COCKER - With A Little Help (Remaster 1999)(1969) [eac Flac]\\04 Marjorine.wav

Pre-gap length 0:00:02.15

Peak level 85.9 %
Track quality 100.0 %
Test CRC D1F211DD
Copy CRC D1F211DD
Track not present in AccurateRip database
Copy OK

Track 5

Filename C:\\Documents and Settings\\Stefano\\Desktop\\JOE COCKER - With A Little Help (Remaster 1999)(1969) [eac Flac]\\05 Just Like A Woman.wav

Pre-gap length 0:00:01.53

Peak level 83.2 %
Track quality 99.9 %
Test CRC 6D598AE9
Copy CRC 6D598AE9
Track not present in AccurateRip database
Copy OK

Track 6

Filename C:\\Documents and Settings\\Stefano\\Desktop\\JOE COCKER - With A Little Help (Remaster 1999)(1969) [eac Flac]\\06 Do I Still Figure In Your Life .wav

Pre-gap length 0:00:01.55

Peak level 88.4 %
Track quality 99.9 %
Test CRC 5D5E6C5D
Copy CRC 5D5E6C5D
Track not present in AccurateRip database
Copy OK

Track 7

Filename C:\\Documents and Settings\\Stefano\\Desktop\\JOE COCKER - With A Little Help (Remaster 1999)(1969) [eac Flac]\\07 Sandpaper Cadillac.wav

Pre-gap length 0:00:02.20

Peak level 85.3 %
Track quality 100.0 %
Test CRC 5130526D
Copy CRC 5130526D
Track not present in AccurateRip database
Copy OK

Track 8

Filename C:\\Documents and Settings\\Stefano\\Desktop\\JOE COCKER - With A Little Help (Remaster 1999)(1969) [eac Flac]\\08 Don\'t Let Me Be Misunderstood.wav

Pre-gap length 0:00:02.60

Peak level 85.6 %
Track quality 100.0 %
Test CRC 05010594
Copy CRC 05010594
Track not present in AccurateRip database
Copy OK

Track 9

Filename C:\\Documents and Settings\\Stefano\\Desktop\\JOE COCKER - With A Little Help (Remaster 1999)(1969) [eac Flac]\\09 With A Little Help From My Friends.wav

Pre-gap length 0:00:02.73

Peak level 88.0 %
Track quality 99.9 %
Test CRC 172840AE
Copy CRC 172840AE
Track not present in AccurateRip database
Copy OK

Track 10

Filename C:\\Documents and Settings\\Stefano\\Desktop\\JOE COCKER - With A Little Help (Remaster 1999)(1969) [eac Flac]\\10 I Shall Be Released.wav

Pre-gap length 0:00:02.00

Peak level 82.5 %
Track quality 99.7 %
Test CRC 38DED813
Copy CRC 38DED813
Track not present in AccurateRip database
Copy OK

Track 11

Filename C:\\Documents and Settings\\Stefano\\Desktop\\JOE COCKER - With A Little Help (Remaster 1999)(1969) [eac Flac]\\11 The New Age Of Lily.wav

Pre-gap length 0:00:05.55

Peak level 78.5 %
Track quality 100.0 %
Test CRC 2B42341F
Copy CRC 2B42341F
Track not present in AccurateRip database
Copy OK

Track 12

Filename C:\\Documents and Settings\\Stefano\\Desktop\\JOE COCKER - With A Little Help (Remaster 1999)(1969) [eac Flac]\\12 Something\'s Coming On.wav

Pre-gap length 0:00:03.55

Peak level 87.5 %
Track quality 100.0 %
Test CRC 2DB7890B
Copy CRC 2DB7890B
Track not present in AccurateRip database
Copy OK


None of the tracks are present in the AccurateRip database

No errors occurred

End of status report

[/code]

JOE COCKER   With A Little Help CORRECTED VERSION (Remaster 1999)(1969)[Eac Flac][colombo bt org] preview 3

[color=blue]01.feeling alright
02.bye bye blackbird
03.change in louise
04.marjorine
05.just like a woman
06.do i still figure in your life
07.sandpaper cadillac
08.don\'t let me be misunderstood
09.with a little help from my friends
10.I shall be released

bonus tracks

11.the new age of lily
12.something\'s coming on
[/color]

JOE COCKER   With A Little Help CORRECTED VERSION (Remaster 1999)(1969)[Eac Flac][colombo bt org] preview 4

JOE COCKER   With A Little Help CORRECTED VERSION (Remaster 1999)(1969)[Eac Flac][colombo bt org] preview 5

[font=Verdana]JOE COCKER: cantante rock blues inglese. Nel 1969 pubblicò WITH A LITTLE HELP FROM MY FRIENDS, il suo primo indimenticabile album. Registrato con l’aiuto di grandi musicisti (STEVIE WINWOOD, MATTHEW FISHER, BJ WILSON, JIMMY PAGE, CHRIS STAINTON) l’album non contiene episodi minori: dalla tittle track, a FEELIN ALRIGHT, da DON’T LET ME BE MISUNDERSTOOD a MARJORINE e via via con il resto. BYE BYE BLACKBIRD contiene uno dei migliori assoli di chitarra di Jimmy Page.
Gran disco da avere assolutamente.
(note di nonantolaslim maggio08)
[/font]

related torrents

Torrent name

health leech seeds Size
 

comments (0)

Main Menu