Action

Catwoman (2004) DVDRip MP3 ENG

  • Download 5x Faster
  • Download torrent
  • Direct Download
  • Rate this torrent +  |  -
Catwoman (2004) DVDRip MP3 ENG

Anonymous and Direct Download 300GB+ free


Torrent info

Name:Catwoman (2004) DVDRip MP3 ENG

Total Size: 703.47 MB

Magnet: Magnet Link

Seeds: 0

Leechers: 0

Stream: Watch Online @ Movie4u

Last Updated: 2015-10-25 02:05:47 (Update Now)

Torrent added: 2008-08-14 21:37:00




Torrent Files List


Catwoman (2004) - DVDRip - MP3 - ENG.nfo (Size: 703.47 MB) (Files: 3)

 Catwoman (2004) - DVDRip - MP3 - ENG.nfo

10.54 KB

 Catwoman.avi

703.46 MB

 Tracked_by_Demonoid_com.txt

0.03 KB
 

tracker

leech seeds
 

Torrent description

IMDB: http://www.imdb.com/title/tt0327554/
User Rating: 3.2/10 (25,500 votes)
Release Date: 13 August 2004 (UK)
Genre: Action | Crime

Plot:
A shy woman, endowed with the speed, reflexes, and senses of a cat, walks a thin line between criminal and
hero, even as a detective doggedly pursues her, fascinated by both of her personas.


Halle Berry ... Patience Phillips / Catwoman
Benjamin Bratt ... Tom Lone
Sharon Stone ... Laurel Hedare
Lambert Wilson ... George Hedare
Frances Conroy ... Ophelia


General
Complete name : D:DVDCatwomanCatwoman.avi
Format : AVI
Format/Info : Audio Video Interleave
File size : 703 MiB
Duration : 1h 39mn
Overal bit rate : 984 Kbps
Writing application : VirtualDubMod 1.5.4.1 (build 2178/release)
Writing library : VirtualDubMod build 2178/release
IAS1 : English

Video
Format : MPEG-4 Visual
Format profile : Streaming [email protected]
Format settings, BVOP : Yes
Format settings, QPel : No
Format settings, GMC : No warppoints
Format settings, Matrix : Custom
Codec ID : XVID
Codec ID/Hint : XviD
Duration : 1h 39mn
Bit rate : 849 Kbps
Width : 608 pixels
Height : 256 pixels
Display aspect ratio : 2.35
Frame rate : 25.000 fps
Resolution : 8 bits
Colorimetry : 4:2:0
Scan type : Progressive
Bits/(Pixel*Frame) : 0.218
Stream size : 607 MiB (86%)
Writing library : XviD 1.1.2 (UTC 2006-11-01)

Audio
Format : MPEG Audio
Format version : Version 1
Format profile : Layer 3
Codec ID : 55
Codec ID/Hint : MP3
Duration : 1h 39mn
Bit rate mode : Constant
Bit rate : 128 Kbps
Minimum bit rate : 128 Kbps
Channel(s) : 2 channels
Sampling rate : 48.0 KHz
Resolution : 16 bits
Stream size : 91.5 MiB (13%)
Writing library : LAME3.97
Encoding settings : CBR

Trackers:
http://inferno.demonoid.com:3392/announce
http://www.torrent-downloads.to:5869/announce
http://open.tracker.thepiratebay.org:80/announce
http://tpb.tracker.thepiratebay.org:80/announce
http://vip.tracker.thepiratebay.org/announce

Info Hash:
06A88595615CC421670F2F579D7357559B3FC4A4


related torrents

Torrent name

health leech seeds Size
 


comments (0)

Main Menu