Other

HenningProBook

  • Download 5x Faster
  • Download torrent
  • Direct Download
  • Rate this torrent +  |  -
HenningProBook

Free and Direct Download with Usenet 300GB+ free


Torrent info

Name:HenningProBook

Total Size: 726.96 MB

Magnet: Magnet Link

Seeds: 1

Leechers: 1

Stream: Watch Online @ Movie4u

Last Updated: 2009-12-03 03:05:54 (Update Now)

Torrent added: 2009-08-30 02:40:13




Torrent Files List


Torrent downloaded from Demonoid.com.txt (Size: 726.96 MB) (Files: 2)

 Torrent downloaded from Demonoid.com.txt

0.05 KB

 probook1.mp4

726.96 MB
 

Announce URL: http://inferno.demonoid.com:3406/announce

Torrent description

Bob Henning explains the first sixteen shots of "The Pro Book"

General
Complete name : probook1.mp4
Format : MPEG-4
Format profile : Base Media
Codec ID : isom
File size : 727 MiB
Duration : 55mn 9s
Overall bit rate : 1 843 Kbps
Movie name : probook1.mp4
Performer : Avidemux
Screenplay by : Avidemux
Encoded date : UTC 1970-01-01 00:00:00
Tagged date : UTC 1970-01-01 00:00:00
Writing application : Lavf51.12.1

Video
Format : MPEG-4 Visual
Format profile : Streaming [email protected]
Format settings, BVOP : Yes
Format settings, QPel : Yes
Format settings, GMC : 3 warppoints
Format settings, Matrix : Default
Codec ID : 20
Duration : 55mn 9s
Bit rate mode : Variable
Bit rate : 1 644 Kbps
Width : 720 pixels
Height : 480 pixels
Display aspect ratio : 1.500
Frame rate mode : Variable
Frame rate : 29.970 fps
Minimum frame rate : 29.940 fps
Maximum frame rate : 29.970 fps
Standard : NTSC
Resolution : 24 bits
Colorimetry : 4:2:0
Scan type : Progressive
Bits/(Pixel*Frame) : 0.159
Stream size : 649 MiB (89%)
Writing library : XviD 1.1.2 (UTC 2006-11-01)
Encoded date : UTC 1970-01-01 00:00:00
Tagged date : UTC 1970-01-01 00:00:00

Audio
Format : MPEG Audio
Format version : Version 1
Format profile : Layer 3
Codec ID : 6B
Duration : 55mn 9s
Bit rate mode : Constant
Bit rate : 192 Kbps
Channel(s) : 2 channels
Sampling rate : 48.0 KHz
Resolution : 16 bits
Stream size : 75.7 MiB (10%)
Encoded date : UTC 1970-01-01 00:00:00
Tagged date : UTC 1970-01-01 00:00:00

video information obtained using MediaInfo http://mediainfo.sourceforge.net


comments (0)

Main Menu