Action

The Hangover 2009 DVDSCR

  • Download 5x Faster
  • Download torrent
  • Direct Download
  • Rate this torrent +  |  -
The Hangover 2009 DVDSCR

Free and Direct Download with Usenet.nl 300GB+ free


Torrent info

Name:The Hangover 2009 DVDSCR

Total Size: 729.05 MB

Magnet: Magnet Link

Seeds: 0

Leechers: 0

Stream: Watch Online @ Movie4u

Last Updated: 0000-00-00 00:00:00 (Update Now)

Torrent added: 2009-08-30 02:34:15





Torrent Files List


The Hangover (2009) DVDSCR-MAXSPEED www.torentz.3xforum.ro.avi (Size: 729.05 MB) (Files: 5)

 The Hangover (2009) DVDSCR-MAXSPEED www.torentz.3xforum.ro.avi

728.84 MB

 screencaps.jpg

215.72 KB

 The Hangover (2009) DVDSCR-MAXSPEED.nfo

2.32 KB

 Torrent downloaded from Demonoid.com.txt

0.05 KB

 tracked_by_h33t_com.txt

0.02 KB
 

Announce URL:

Torrent description


Format : AVI
Format/Info : Audio Video Interleave
File size : 729 MiB
Duration : 1h 37mn
Overall bit rate : 1 041 Kbps
Writing application : FairUse Wizard
Writing library : The best and REALLY easy backup tool

Video
Format : MPEG-4 Visual
Format profile : [email protected]
Format settings, BVOP : No
Format settings, QPel : No
Format settings, GMC : No warppoints
Format settings, Matrix : Default (H.263)
Codec ID : XVID
Codec ID/Hint : XviD
Duration : 1h 37mn
Bit rate : 904 Kbps
Width : 672 pixels
Height : 272 pixels
Display aspect ratio : 2.471
Frame rate : 23.976 fps
Resolution : 24 bits
Colorimetry : 4:2:0
Scan type : Progressive
Bits/(Pixel*Frame) : 0.206
Stream size : 633 MiB (87%)
Writing library : XviD 1.2.0.dev47 (UTC 2006-11-01)

Audio
Format : MPEG Audio
Format version : Version 1
Format profile : Layer 3
Codec ID : 55
Codec ID/Hint : MP3
Duration : 1h 37mn
Bit rate mode : Constant
Bit rate : 128 Kbps
Channel(s) : 2 channels
Sampling rate : 48.0 KHz
Resolution : 16 bits
Stream size : 89.6 MiB (12%)
Alignment : Aligned on interleaves
Interleave, duration : 42 ms (1.00 video frame)
Interleave, preload duration : 504 ms
Writing library : LAME3.97
Encoding settings : -m j -V 4 -q 2 -lowpass 17 -b 128

related torrents

Torrent name

health leech seeds Size

The hangover 2009 dvdscr

0 6 728.00 MB 0
 

comments (0)

Main Menu