Rock

THE FIRM 1° (1985) [eac flac][colombo bt org]

  • Download 5x Faster
  • Download torrent
  • Direct Download
  • Rate this torrent +  |  -
THE FIRM 1° (1985) [eac flac][colombo bt org]

Free and Direct Download with Usenet 300GB+ free


Torrent info

Name:THE FIRM 1° (1985) [eac flac][colombo bt org]

Total Size: 250.94 MB

Magnet: Magnet Link

Seeds: 0

Leechers: 0

Stream: Watch Online @ Movie4u

Last Updated: 2010-09-11 02:38:36 (Update Now)

Torrent added: 2009-08-30 02:29:53




Torrent Files List


01 Closer.flac (Size: 250.94 MB) (Files: 20)

 01 Closer.flac

18.96 MB

 02 Make Or Break.flac

28.23 MB

 03 Someone To Love.flac

31.32 MB

 04 Together.flac

24.66 MB

 05 Radioactive.flac

18.42 MB

 06 You've Lost That Lovin' Feeling.flac

26.49 MB

 07 Money Can't Buy.flac

21.99 MB

 08 Satisfaction Guaranteed.flac

25.35 MB

 09 Midnight Moonlight.flac

51.63 MB

 FIRM - 1°(1985)[eac flac].ffp

0.62 KB

 firm 1°.txt

0.51 KB

 firm copertine artwork

  firm405.jpg

315.83 KB

  firm406.jpg

490.16 KB

  firm407.jpg

1.02 MB

  firm408.jpg

957.81 KB

  firm409.jpg

475.85 KB

  firm410.jpg

708.47 KB

 Self Entitled.cue

1.49 KB

 The Firm - Self Entitled.log

4.87 KB

 The Firm - Self Entitled.m3u

0.59 KB
 

Announce URL: http://colombo-bt.org:2710/announce

Torrent description

THE FIRM  1° (1985) [eac flac][colombo bt org] preview 0

[color=blue][size=18pt]"FIRM - 1° (1985 )[Eac Flac]"[/size][/color]

THE FIRM  1° (1985) [eac flac][colombo bt org] preview 1

[color=blue][font=Verdana]TITOLO: THE FIRM - 1°
ANNO: 1985
ETICHETTA: Atlantic
GENERE: Hard Rock Inglese
FORMATO: Flac Level 8
COPERTINE: sì (scansioni originali)
FONTE: CD originale
EDIZIONE: Atlantic - made in Usa
[/font][/color]

[code]Exact Audio Copy V0.99 prebeta 3 from 28. July 2007

EAC extraction logfile from 20. June 2008, 22:20

The Firm / Self Entitled

Used drive : PLEXTOR DVDR PX-800A Adapter: 1 ID: 0

Read mode : Secure
Utilize accurate stream : Yes
Defeat audio cache : Yes
Make use of C2 pointers : No

Read offset correction : 48
Overread into Lead-In and Lead-Out : No
Fill up missing offset samples with silence : Yes
Delete leading and trailing silent blocks : No
Null samples used in CRC calculations : Yes
Used interface : Installed external ASPI interface
Gap handling : Appended to previous track

Used output format : Internal WAV Routines
Sample format : 44.100 Hz; 16 Bit; Stereo


TOC of the extracted CD

Track | Start | Length | Start sector | End sector
---------------------------------------------------------
1 | 0:01.00 | 2:53.32 | 75 | 13081
2 | 2:54.32 | 4:22.10 | 13082 | 32741
3 | 7:16.42 | 4:53.70 | 32742 | 54786
4 | 12:10.37 | 3:54.63 | 54787 | 72399
5 | 16:05.25 | 2:49.17 | 72400 | 85091
6 | 18:54.42 | 4:32.73 | 85092 | 105564
7 | 23:27.40 | 3:34.25 | 105565 | 121639
8 | 27:01.65 | 4:12.10 | 121640 | 140549
9 | 31:14.00 | 9:13.35 | 140550 | 182059


Track 1

Filename C:\Documents and Settings\Stefano\Desktop\FIRM - 1°(1985)[eac flac]\01 Closer.wav

Pre-gap length 0:00:03.00

Peak level 79.3 %
Track quality 100.0 %
Test CRC 861ED100
Copy CRC 861ED100
Cannot be verified as accurate (confidence 2) [9F37ECDE], AccurateRip returned [32C9568E]
Copy OK

Track 2

Filename C:\Documents and Settings\Stefano\Desktop\FIRM - 1°(1985)[eac flac]\02 Make Or Break.wav

Pre-gap length 0:00:00.02

Peak level 92.5 %
Track quality 100.0 %
Test CRC 519EFBFB
Copy CRC 519EFBFB
Cannot be verified as accurate (confidence 2) [E3EDB1CE], AccurateRip returned [1FCA6455]
Copy OK

Track 3

Filename C:\Documents and Settings\Stefano\Desktop\FIRM - 1°(1985)[eac flac]\03 Someone To Love.wav

Peak level 88.9 %
Track quality 100.0 %
Test CRC C31460CD
Copy CRC C31460CD
Cannot be verified as accurate (confidence 2) [F5516E13], AccurateRip returned [0F54F3EA]
Copy OK

Track 4

Filename C:\Documents and Settings\Stefano\Desktop\FIRM - 1°(1985)[eac flac]\04 Together.wav

Pre-gap length 0:00:00.02

Peak level 86.9 %
Track quality 100.0 %
Test CRC ECE63429
Copy CRC ECE63429
Cannot be verified as accurate (confidence 2) [0DB6BFB3], AccurateRip returned [A689109D]
Copy OK

Track 5

Filename C:\Documents and Settings\Stefano\Desktop\FIRM - 1°(1985)[eac flac]\05 Radioactive.wav

Pre-gap length 0:00:00.25

Peak level 79.7 %
Track quality 100.0 %
Test CRC EF8D51E7
Copy CRC EF8D51E7
Cannot be verified as accurate (confidence 2) [872BE16A], AccurateRip returned [4612AA16]
Copy OK

Track 6

Filename C:\Documents and Settings\Stefano\Desktop\FIRM - 1°(1985)[eac flac]\06 You've Lost That Lovin' Feeling.wav

Pre-gap length 0:00:00.02

Peak level 85.5 %
Track quality 100.0 %
Test CRC 9CE0D089
Copy CRC 9CE0D089
Cannot be verified as accurate (confidence 2) [9CBB2843], AccurateRip returned [BD777BAF]
Copy OK

Track 7

Filename C:\Documents and Settings\Stefano\Desktop\FIRM - 1°(1985)[eac flac]\07 Money Can't Buy.wav

Pre-gap length 0:00:00.03

Peak level 80.6 %
Track quality 100.0 %
Test CRC 9909B9D7
Copy CRC 9909B9D7
Cannot be verified as accurate (confidence 2) [3E19C128], AccurateRip returned [F09EDB80]
Copy OK

Track 8

Filename C:\Documents and Settings\Stefano\Desktop\FIRM - 1°(1985)[eac flac]\08 Satisfaction Guaranteed.wav

Pre-gap length 0:00:00.03

Peak level 85.7 %
Track quality 100.0 %
Test CRC 5617003F
Copy CRC 5617003F
Cannot be verified as accurate (confidence 2) [FFB7F7B1], AccurateRip returned [3EF11555]
Copy OK

Track 9

Filename C:\Documents and Settings\Stefano\Desktop\FIRM - 1°(1985)[eac flac]\09 Midnight Moonlight.wav

Pre-gap length 0:00:01.53

Peak level 76.7 %
Track quality 100.0 %
Test CRC 42D009C5
Copy CRC 42D009C5
Cannot be verified as accurate (confidence 2) [2324633F], AccurateRip returned [1E9DD983]
Copy OK


No tracks could be verified as accurate
You may have a different pressing from the one(s) in the database

No errors occurred

End of status report
[/code]

THE FIRM  1° (1985) [eac flac][colombo bt org] preview 2

[color=blue]01.closer
02.make or break
03.someone to love
04.together
05.radioactive
06.you've lost that loving feeling
07.money can't buy
08.satisfaction guaranteed
09.midnight moonlight

FORMAZIONE
Paul Rodgers - voce
Jimmy Page - chitarra
Tony Franklin - basso
Chris Slade - batteria
[/color]

THE FIRM  1° (1985) [eac flac][colombo bt org] preview 3

THE FIRM  1° (1985) [eac flac][colombo bt org] preview 4

[font=Verdana]
L’inizio degli anni ottanta non fu certo un periodo particolarmente brillante per JIMMY PAGE e PAUL RODGERS: senza più le loro band leggendarie (LED ZEPPELIN e BAD COMPANY), alle prese con recenti e confuse prove discografiche (DEATH WISH II e CUT LOOSE) e con una scena musicale che considerava quel tipo di musicisti dinosauri.
Nel 1983, in occasione del tour a favore della ricerca per la sclerosi multipla (ARMS- tour di poche date, speso insieme a parecchi storici musicisti britannici) decisero di formare una band insieme.
Pubblicarono così due album: FIRM del 1985 e MEAN BUSINESS del 1986.
Da due musicisti di quel calibro ci si sarebbero aspettati risultati di alto livello, ma quello che ne scaturì fu un rock a tratti interlocutorio e non a fuoco testimone del periodo di transizione che i due stavano passando.
Se consideriamo poi che siamo negli anni ottanta, decennio buio per il rock (a parte qualche eccezione), ecco che i due dischi dei Firm diventano due album dignitosi.

FIRM (1985): l’hard rock inglese di CLOSER, SOMEONE TO LOVE e MAKE OR BREAK, la semplice grazia acustica di TOGETHER, l’incedere di RADIOACTIVE, le ombre misteriose di SATISFACTION GUARANTEED e lo spirito Zeppelin di MIDNIGHT MOONLIGHT.
Quest’ultima infatti – almeno dal punto di vista strumentale – fu scritta da Page tra il 1973 e il 1975 e registrata con gli Zeppelin (senza cantato) proprio in quegli anni e intitolata SWAN SONG.

MEAN BUSINESS(1986): l’hard rock di FORTUNE HUNTER, TEAR DOWN THE WALLS e FREE TO LIVE, la intensa retorica di LIVE IN PEACE, ALL THE KINGS HORSES e SPIRIT OF LOVE, la nitida bellezza di DREAMING (al cui giro di chitarra Jeff Buckley deve molto).

Recensione di Nonantolaslim – giugno 2008

[/font]

THE FIRM  1° (1985) [eac flac][colombo bt org] preview 5

related torrents

Torrent name

health leech seeds Size
 

comments (0)

Main Menu