Thriller

Urban Legends Bloody Mary(2005)Hindi DVDRip XviD ~ Smeet

  • Download 5x Faster
  • Download torrent
  • Direct Download
  • Rate this torrent +  |  -

Torrent info

Name:Urban Legends Bloody Mary(2005)Hindi DVDRip XviD ~ Smeet

Total Size: 700.10 MB

Magnet: Magnet Link

Seeds: 0

Leechers: 0

Stream: Watch Online @ Movie4u

Last Updated: 2014-03-16 00:42:41 (Update Now)

Torrent added: 2009-08-30 01:50:09



VPN For Torrents

Torrent Files List


smeet.nfo (Size: 700.10 MB) (Files: 2)

 smeet.nfo

7.18 KB

 Urban Legends - Bloody Mary(2005)Hindi-DVDRip-XviD ~ Smeet.avi

700.09 MB
 

Announce URL:

Torrent description


################## TM
##^^^^^^^^^^^^^^^^####
############## #^^^^^^^^^^^^^^^^^^^##
###### #### #########^^^^^# #^^^^^#########^^^^^#
###### ####### ###########^^^# #^^^^^^^^^^^^^#^^^^^#
####### ####### ############^^## #^^^^^^^^^^^^^#^^^^^#
################################# ############^^^###^^^^^^^^^^^^^#^^^^^#
############################################^#^^#^^^^^^^^^^^^^^^^#^^^^^#
#####################################^^^^^^^^#^^#########^^^#######^^^^#####
####################################^^^^^^^^^##^^^^^^^^^##^^#^^^^^^^^^^^^^^##
####################################^^^^^^^^^^###^^^^^^^^#^^#^^^^^^^^^^^^^^^##
######################### ##########^^^^^####^^##^^^^^^^^#^^#^^^^^^^^^^^^^^^##
####################################^########^^#^#########^^######^^^^^######
#############################################^^#^#^^^^^^^^^^^^^^^#^^^^^#
##############################################^#^#^^^^^^^^^^^^^^^#^^^^^#
##############################################^#^#^^^^^^^^^^^^^^^#^^^^^#
##################################^^^^^^^^^^#^#^^^^^^^^^^^^^^^#^^^^^#
############################################^^^#^##^^^^^^^^^^^^^^#^^^^^#
##############################################^#^^^###^^^^^^^^^^^#^^^^^#
#################################################^^^^#^^^^^^^^^^^#^^^^^#
###############################################^######^^^^^^^^^^^#^^^^^#
###################### ###### ##############^^^^^^^^^^^########^^^^^#
###################### ###### ##############^^##^^^^^^^# #^^^^^^#
###################### ###### ##################^^^^^^^# #^^^^^^#
############## ############### ######^^# ########
############## ############### ###
#############
MEANS QUALITY

=======================================================
= Urban Legends: Bloody Mary (2005) =
=======================================================

|##############################################################################|
| |
|GENERAL INFORMATION |
|=================== |
|Format : AVI |
|Format/Info : Audio Video Interleave |
|Format profile : OpenDML |
|File size : 700 MiB |
|Duration : 1h 29mn |
|Overall bit rate : 1 096 Kbps |
|Language : Hindi Source: DVD |
|SUBTITLE : No |
|GENRE : Horror | Thriller |
|IMDB LINK : http://www.imdb.com/title/tt0451957/ |
|IMDB RATING : 4.2/10 |
|RIPPER : SMEET |
|##############################################################################|

|##############################################################################|
| |
|Video |
|Format : MPEG-4 Visual |
|Format settings, Matrix : Custom |
|Codec ID : XVID |
|Codec ID/Hint : XviD |
|Duration : 1h 29mns |
|Width : 608 pixels |
|Height : 320 pixels |
|Display aspect ratio : 1.900 |
|Frame rate : 25.000 fps |
|Resolution : 24 bits |
|Colorimetry : 4:2:0 |
|Scan type : Progressive |
|Bits/(Pixel*Frame) : 0.205 |
|Stream size : 636 MiB (91%) |
|Writing library : XviD 1.2.1 (UTC 2008-12-04) rter. |
|##############################################################################|
|Audio |
|Format : MPEG Audio |
|Format version : Version 1 |
|Format profile : Layer 3 |
|Codec ID : 55 |
|Codec ID/Hint : MP3 |
|Duration : 1h 29mn |
|Bit rate mode : Constant |
|Bit rate : 96.0 Kbps |
|Channel(s) : 2 channels |
|Sampling rate : 32.0 KHz |
|Resolution : 16 bits |
|Stream size : 61.3 MiB (9%) |
|Alignment : Aligned on interleaves |
|Interleave, duration : 762 ms (19.05 video frames) |
|Interleave, preload duration : 216 ms |
|Title : smeet~legend T81 3_2ch 448Kbps DELAY 0mss |
|Writing library : LAME3.98r |
|Encoding settings : -m j -V 4 -q 2 -lowpass 15.1 -b 96 |
| |
| ALL MY RELEAASES AVAILABLE AT http://thepiratebay.org/user/bonkingph/ |
| http://www.ahashare.com/account-details.php?id=28583 |
|##############################################################################|
www.AhaShare.Com




related torrents

Torrent name

health leech seeds Size
 


comments (0)

Main Menu