Thriller

The Escapist 2008 DVDRIP ZEKTORM

  • Download 5x Faster
  • Download torrent
  • Direct Download
  • Rate this torrent +  |  -
The Escapist 2008 DVDRIP ZEKTORM

Anonymous and Direct Download 300GB+ free


Torrent info

Name:The Escapist 2008 DVDRIP ZEKTORM

Total Size: 700.12 MB

Magnet: Magnet Link

Seeds: 0

Leechers: 0

Stream: Watch Online @ Movie4u

Last Updated: 2010-09-22 11:08:03 (Update Now)

Torrent added: 2009-08-30 01:27:35




Torrent Files List


READ.hlp (Size: 700.12 MB) (Files: 2)

 READ.hlp

12.79 KB

 The.Escapist.2008.DVDRIP-ZEKTORM.mp4

700.11 MB
 

Announce URL: http://eztv.tracker.thepiratebay.org:80/announce

Torrent description

Title : The Escapist
Year : 2008
Genre : Thriller
iMDB Rate : User Rating: 7.2/10 1,277 votes
iMDB URL : http://www.imdb.com/title/tt0961728/
Awards : 2 wins & 2 nominations

Complete name : The.Escapist.2008.DVDRIP-ZEKTORM.mp4
Format : MPEG-4
Format profile : Base Media
Codec ID : isom
File size : 700 MiB
Duration : 1h 37mn
Overall bit rate : 1002 Kbps
Source : DVD PAL
Encoded date : UTC 2009-02-08 19:56:37

Video
Format : AVC
Format/Info : Advanced Video Codec
Format profile : [email protected]
Format settings, CABAC : Yes
Format settings, ReFrames : 10 frames
Codec ID : avc1
Codec ID/Info : Advanced Video Coding
Duration : 1h 37mn
Bit rate mode : Variable
Bit rate : 916 Kbps
Maximum bit rate : 6675 Kbps
Width : 704 pixels
Height : 544 pixels
Display aspect ratio : 1.882
Frame rate mode : Constant
Frame rate : 25.000 fps
Resolution : 24 bits
Colorimetry : 4:2:0
Scan type : Progressive
Bits/(Pixel*Frame) : 0.096
Stream size : 640 MiB (91%)
Title : Video
Writing library : x264 core 60 r900 a9af942

Audio
Format : AAC
Format/Info : Advanced Audio Codec
Format version : Version 4
Format profile : LC
Format settings, SBR : Yes
Format settings, PS : No
Codec ID : 40
Duration : 1h 37mn
Bit rate mode : Variable
Bit rate : 83.1 Kbps
Maximum bit rate : 113 Kbps
Channel(s) : 2 channels
Channel positions : L R
Sampling rate : 48.0 KHz
Resolution : 16 bits
Stream size : 58.1 MiB (8%)
Title : English
Language : English

Notes : Convert to DVD with Nero

related torrents

Torrent name

health leech seeds Size
 


comments (0)

Main Menu