Thriller

THE PROPHECY DEWSTRR

  • Download 5x Faster
  • Download torrent
  • Direct Download
  • Rate this torrent +  |  -
THE PROPHECY DEWSTRR

Download FREE And Anonymously


Torrent info

Name:THE PROPHECY DEWSTRR

Total Size: 907.85 MB

Magnet: Magnet Link

Seeds: 0

Leechers: 0

Stream: Watch Full Movie @ Movie4u

Last Updated: 2010-10-07 06:52:52 (Update Now)

Torrent added: 2009-08-30 01:10:25



VPN For Torrents

Torrent Files List


PR 1.jpg (Size: 907.85 MB) (Files: 15)

 PR 1.jpg

32.03 KB

 PR 1.sfv

1.42 KB

 PR 10.jpg

27.31 KB

 PR 11.jpg

13.27 KB

 PR 12.jpg

16.74 KB

 PR 2.jpg

21.89 KB

 PR 3.jpg

25.88 KB

 PR 4.jpg

18.46 KB

 PR 5.jpg

26.93 KB

 PR 6.jpg

15.66 KB

 PR 7.jpg

16.40 KB

 PR 8.jpg

25.20 KB

 PR 9.jpg

26.56 KB

 THE PROPHECY.divx

907.59 MB

 Torrent_downloaded_from_Demonoid.com.txt

0.05 KB
 

Announce URL: http://inferno.demonoid.com:3407/announce

Torrent description

THE PROPHECY.DVDRIP
Horror Thriller Fantasy Mystery

There's a war in heaven and Gabriel [Christopher Walken] comes to earth to find the soul of a dark warrior that will help him end the war, the soul lies in the body of a dead colonel Hawthorne but Simon [Eric Stoltz] is 1 step ahead of Gabriel, he enlists the aid of a detective Thomas Daggett [Elias Koteas] who once was a priest who has lost his faith, he hides the soul in a young Indian girl [Moriah 'Shining Dove' Snyder], Gabriel finds Simon, kills him, tracks down the soul in the Indian girl, only the detective,a school teacher [Virginia Madsen] and Lucifer [Viggo Mortensen] can stop Gabriel from his plan to end the war in heaven

http://www.imdb.com/title/tt0114194/

Video
Format : MPEG-4 Visual
Format settings, BVOP : Yes
Format settings, QPel : No
Format settings, GMC : No warppoints
Format settings, Matrix : Default
Muxing mode : Packed bitstream
Codec ID : DX50
Codec ID/Hint : DivX 5
Duration : 1h 37mn
Bit rate : 1 101 Kbps
Width : 656 pixels
Height : 272 pixels
Display aspect ratio : 2.412
Frame rate : 23.976 fps
Resolution : 24 bits
Colorimetry : 4:2:0
Scan type : Progressive
Bits/(Pixel*Frame) : 0.257
Stream size : 767 MiB (85%)
Title : Video
Writing library : DivX 6.8.2 (UTC 2008-05-17)

Audio
Format : AC-3
Format/Info : Audio Coding 3
Format profile : Dolby Digital
Codec ID : 2000
Duration : 1h 37mn
Bit rate mode : Constant
Bit rate : 192 Kbps
Channel(s) : 2 channels
Channel positions : L R
Sampling rate : 48.0 KHz
Stream size : 134 MiB (15%)
Alignment : Split accross interleaves
Interleave, duration : 42 ms (1.00 video frame)
Interleave, preload duration : 500 ms
Title : Audio

General
Complete name : THE PROPHECY\PR 1.sfv
File size : 1.42 KiB

General
Complete name :THE PROPHECY\Torrent_downloaded_from_Demonoid.com.txt
File size : 47.0 Bytes

THE PROPHECY DEWSTRR preview 0
THE PROPHECY DEWSTRR preview 1
THE PROPHECY DEWSTRR preview 2
THE PROPHECY DEWSTRR preview 3
THE PROPHECY DEWSTRR preview 4
THE PROPHECY DEWSTRR preview 5
THE PROPHECY DEWSTRR preview 6
THE PROPHECY DEWSTRR preview 7
THE PROPHECY DEWSTRR preview 8
THE PROPHECY DEWSTRR preview 9
THE PROPHECY DEWSTRR preview 10
THE PROPHECY DEWSTRR preview 11
burned with windows [with a couple of other movies] and played on my philips divx ultra certified dvd player


related torrents

Torrent name

health leech seeds Size

THE RELIC DEWSTRR

1 3 1.09 GB 0

THE ARRIVAL DEWSTRR

4 3 1.09 GB 0
 


comments (0)

Main Menu

 

script data-cfasync="false" src="//d2ghscazvn398x.cloudfront.net/?cshgd=690275">