Rock

FREE Live At The BBC (2006 2cd) (eac flac)[colombo bt org]

  • Download 5x Faster
  • Download torrent
  • Direct Download
  • Rate this torrent +  |  -
FREE Live At The BBC (2006 2cd) (eac flac)[colombo bt org]

Anonymous and Direct Download 300GB+ free


Torrent info

Name:FREE Live At The BBC (2006 2cd) (eac flac)[colombo bt org]

Total Size: 583.50 MB

Magnet: Magnet Link

Seeds: 0

Leechers: 0

Stream: Watch Online @ Movie4u

Last Updated: 2016-03-29 01:26:18 (Update Now)

Torrent added: 2009-08-30 01:00:05




Torrent Files List


free bbc artwork-copertine (Size: 583.50 MB) (Files: 50)

 free bbc artwork-copertine

  cd1336.jpg

351.66 KB

  cd2337.jpg

320.38 KB

  free bbc 1341.jpg

1.44 MB

  free bbc 2342.jpg

1.30 MB

  free bbc 3343.jpg

1.53 MB

  free bbc 4344.jpg

1.41 MB

  free bbc 5345.jpg

1.38 MB

  free bbc 6346.jpg

1.54 MB

  free bbc retro 2339.jpg

830.31 KB

  free bbc retro 340.jpg

753.55 KB

 free bbc cd1

  01 Waiting On You.flac

15.16 MB

  02 Sugar For Mr Morrision.flac

22.27 MB

  03 I'm A Mover.flac

19.76 MB

  04 Over The Green Hills.flac

18.07 MB

  05 Songs Of Yesterday.flac

20.77 MB

  06 Broad Daylight.flac

20.17 MB

  07 Woman.flac

15.07 MB

  08 I'll Be Creepin'.flac

9.46 MB

  09 Trouble On Double Time.flac

13.36 MB

  10 Mouthful of Grass.flac

20.12 MB

  11 All Right Now.flac

36.08 MB

  12 Fire And Water.flac

20.33 MB

  13 Be My Friend (take 1).flac

39.91 MB

  14 Be My Friend (take 2).flac

36.26 MB

  15 Ride On A Pony (take 1).flac

871.95 KB

  16 Ride On A Pony (take 2).flac

30.94 MB

  17 Ride On A Pony (take 3).flac

9.11 MB

  18 Ride On A Pony (take 4).flac

2.25 MB

  19 Ride On A Pony (take 5).flac

30.86 MB

  20 Get Where I Belong.flac

20.99 MB

  Free - Live At The Bbc (In Session).log

8.97 KB

  Free - Live At The Bbc (In Session).m3u

1.30 KB

  free bbc cd1.ffp

1.29 KB

  Live At The Bbc (In Session).cue

3.19 KB

 free bbc cd2

  01 The Hunter.flac

15.72 MB

  02 Woman.flac

12.54 MB

  03 Free Me.flac

18.80 MB

  04 Remember.flac

13.39 MB

  05 Fire And Water.flac

13.51 MB

  06 Be My Friend.flac

16.10 MB

  07 Ride On A Pony.flac

15.33 MB

  08 Mr Big.flac

21.90 MB

  09 Don't Say You Love Me.flac

17.06 MB

  10 Woman.flac

11.94 MB

  11 All Right Now.flac

14.59 MB

  Free - Live At The Bbc (In Concert).log

5.47 KB

  Free - Live At The Bbc (In Concert).m3u

0.56 KB

  free bbc cd2.ffp

0.68 KB

  Live At The Bbc (In Concert).cue

1.65 KB

 Free BBC sessions.txt

0.52 KB
 

tracker

leech seeds
 

Torrent description

FREE   Live At The BBC (2006 2cd) (eac flac)[colombo bt org] preview 0

[color=blue][size=18pt]\"FREE - Live At The BBC (2006 2cd)[Eac Flac]\"[/size][/color]

FREE   Live At The BBC (2006 2cd) (eac flac)[colombo bt org] preview 1

[color=blue][font=Verdana]TITOLO: FREE Live At The BBC
ANNO: 2006
ETICHETTA: Universal Island Records
GENERE: (Hard) Rock (Blues) inglese
FORMATO: Flac Level 8
COPERTINE: sì (scansioni originali)
FONTE: CD originale
EDIZIONE: Universal Island Records - 2006 - Made in Eu
[/font][/color]

[code]Exact Audio Copy V0.99 prebeta 3 from 28. July 2007

EAC extraction logfile from 26. May 2008, 22:05

Free / Live At The Bbc (In Session)

Used drive : PLEXTOR DVDR PX-800A Adapter: 1 ID: 0

Read mode : Secure
Utilize accurate stream : Yes
Defeat audio cache : Yes
Make use of C2 pointers : No

Read offset correction : 48
Overread into Lead-In and Lead-Out : No
Fill up missing offset samples with silence : Yes
Delete leading and trailing silent blocks : No
Null samples used in CRC calculations : No
Used interface : Installed external ASPI interface
Gap handling : Appended to previous track

Used output format : Internal WAV Routines
Sample format : 44.100 Hz; 16 Bit; Stereo


TOC of the extracted CD

Track | Start | Length | Start sector | End sector
---------------------------------------------------------
1 | 0:00.00 | 2:16.52 | 0 | 10251
2 | 2:16.52 | 3:43.03 | 10252 | 26979
3 | 5:59.55 | 3:05.10 | 26980 | 40864
4 | 9:04.65 | 3:52.34 | 40865 | 58298
5 | 12:57.24 | 3:08.47 | 58299 | 72445
6 | 16:05.71 | 3:19.27 | 72446 | 87397
7 | 19:25.23 | 4:22.49 | 87398 | 107096
8 | 23:47.72 | 2:43.52 | 107097 | 119373
9 | 26:31.49 | 3:51.35 | 119374 | 136733
10 | 30:23.09 | 4:41.42 | 136734 | 157850
11 | 35:04.51 | 5:28.39 | 157851 | 182489
12 | 40:33.15 | 3:04.42 | 182490 | 196331
13 | 43:37.57 | 6:05.48 | 196332 | 223754
14 | 49:43.30 | 5:36.43 | 223755 | 248997
15 | 55:19.73 | 0:10.20 | 248998 | 249767
16 | 55:30.18 | 4:31.59 | 249768 | 270151
17 | 60:02.02 | 1:24.22 | 270152 | 276473
18 | 61:26.24 | 0:25.15 | 276474 | 278363
19 | 61:51.39 | 4:29.67 | 278364 | 298605
20 | 66:21.31 | 3:25.09 | 298606 | 313989


Track 1

Filename C:\\Documents and Settings\\Stefano\\Desktop\\FREE - Live At The BBC (2006 2cd)[Eac Flac]\\01 Waiting On You.wav

Pre-gap length 0:00:02.00

Peak level 68.3 %
Track quality 100.0 %
Test CRC 0F3F9C16
Copy CRC 0F3F9C16
Accurately ripped (confidence 2) [1DD86E7C]
Copy OK

Track 2

Filename C:\\Documents and Settings\\Stefano\\Desktop\\FREE - Live At The BBC (2006 2cd)[Eac Flac]\\02 Sugar For Mr Morrision.wav

Pre-gap length 0:00:01.58

Peak level 68.4 %
Track quality 100.0 %
Test CRC 06DCB81D
Copy CRC 06DCB81D
Accurately ripped (confidence 2) [C82D677B]
Copy OK

Track 3

Filename C:\\Documents and Settings\\Stefano\\Desktop\\FREE - Live At The BBC (2006 2cd)[Eac Flac]\\03 I\'m A Mover.wav

Pre-gap length 0:00:01.58

Peak level 68.3 %
Track quality 100.0 %
Test CRC 8E680D8B
Copy CRC 8E680D8B
Accurately ripped (confidence 2) [A5F0DCF5]
Copy OK

Track 4

Filename C:\\Documents and Settings\\Stefano\\Desktop\\FREE - Live At The BBC (2006 2cd)[Eac Flac]\\04 Over The Green Hills.wav

Pre-gap length 0:00:01.58

Peak level 55.9 %
Track quality 99.9 %
Test CRC 35F8F65C
Copy CRC 35F8F65C
Accurately ripped (confidence 2) [01A14D79]
Copy OK

Track 5

Filename C:\\Documents and Settings\\Stefano\\Desktop\\FREE - Live At The BBC (2006 2cd)[Eac Flac]\\05 Songs Of Yesterday.wav

Pre-gap length 0:00:00.05

Peak level 68.3 %
Track quality 99.9 %
Test CRC E47E2506
Copy CRC E47E2506
Accurately ripped (confidence 2) [FC7CA1E0]
Copy OK

Track 6

Filename C:\\Documents and Settings\\Stefano\\Desktop\\FREE - Live At The BBC (2006 2cd)[Eac Flac]\\06 Broad Daylight.wav

Pre-gap length 0:00:01.58

Peak level 68.3 %
Track quality 100.0 %
Test CRC 5BA8CCF1
Copy CRC 5BA8CCF1
Accurately ripped (confidence 2) [9D638C1A]
Copy OK

Track 7

Filename C:\\Documents and Settings\\Stefano\\Desktop\\FREE - Live At The BBC (2006 2cd)[Eac Flac]\\07 Woman.wav

Pre-gap length 0:00:01.58

Peak level 68.3 %
Track quality 99.9 %
Test CRC FC2F7000
Copy CRC FC2F7000
Accurately ripped (confidence 2) [64DD2243]
Copy OK

Track 8

Filename C:\\Documents and Settings\\Stefano\\Desktop\\FREE - Live At The BBC (2006 2cd)[Eac Flac]\\08 I\'ll Be Creepin\'.wav

Pre-gap length 0:00:01.58

Peak level 68.3 %
Track quality 99.9 %
Test CRC 948BDA8A
Copy CRC 948BDA8A
Accurately ripped (confidence 2) [76E87583]
Copy OK

Track 9

Filename C:\\Documents and Settings\\Stefano\\Desktop\\FREE - Live At The BBC (2006 2cd)[Eac Flac]\\09 Trouble On Double Time.wav

Pre-gap length 0:00:01.58

Peak level 68.3 %
Track quality 100.0 %
Test CRC 703BA973
Copy CRC 703BA973
Accurately ripped (confidence 2) [83C482FF]
Copy OK

Track 10

Filename C:\\Documents and Settings\\Stefano\\Desktop\\FREE - Live At The BBC (2006 2cd)[Eac Flac]\\10 Mouthful of Grass.wav

Pre-gap length 0:00:01.58

Peak level 58.1 %
Track quality 99.9 %
Test CRC C277CF03
Copy CRC C277CF03
Accurately ripped (confidence 2) [AAE0D85C]
Copy OK

Track 11

Filename C:\\Documents and Settings\\Stefano\\Desktop\\FREE - Live At The BBC (2006 2cd)[Eac Flac]\\11 All Right Now.wav

Pre-gap length 0:00:00.09

Peak level 64.5 %
Track quality 100.0 %
Test CRC 029DCD0D
Copy CRC 029DCD0D
Accurately ripped (confidence 2) [972EB440]
Copy OK

Track 12

Filename C:\\Documents and Settings\\Stefano\\Desktop\\FREE - Live At The BBC (2006 2cd)[Eac Flac]\\12 Fire And Water.wav

Pre-gap length 0:00:01.58

Peak level 68.3 %
Track quality 100.0 %
Test CRC CFFE7F2F
Copy CRC CFFE7F2F
Accurately ripped (confidence 2) [48AFB342]
Copy OK

Track 13

Filename C:\\Documents and Settings\\Stefano\\Desktop\\FREE - Live At The BBC (2006 2cd)[Eac Flac]\\13 Be My Friend (take 1).wav

Pre-gap length 0:00:01.58

Peak level 68.3 %
Track quality 100.0 %
Test CRC 7F1664A7
Copy CRC 7F1664A7
Accurately ripped (confidence 2) [BBC6526C]
Copy OK

Track 14

Filename C:\\Documents and Settings\\Stefano\\Desktop\\FREE - Live At The BBC (2006 2cd)[Eac Flac]\\14 Be My Friend (take 2).wav

Pre-gap length 0:00:00.10

Peak level 68.3 %
Track quality 100.0 %
Test CRC D72C36C4
Copy CRC D72C36C4
Accurately ripped (confidence 2) [4364AC19]
Copy OK

Track 15

Filename C:\\Documents and Settings\\Stefano\\Desktop\\FREE - Live At The BBC (2006 2cd)[Eac Flac]\\15 Ride On A Pony (take 1).wav

Pre-gap length 0:00:01.58

Peak level 71.4 %
Track quality 98.9 %
Test CRC E8A96103
Copy CRC E8A96103
Accurately ripped (confidence 2) [560EA5E5]
Copy OK

Track 16

Filename C:\\Documents and Settings\\Stefano\\Desktop\\FREE - Live At The BBC (2006 2cd)[Eac Flac]\\16 Ride On A Pony (take 2).wav

Pre-gap length 0:00:01.58

Peak level 84.7 %
Track quality 100.0 %
Test CRC 2D964DF0
Copy CRC 2D964DF0
Accurately ripped (confidence 2) [8463C3A4]
Copy OK

Track 17

Filename C:\\Documents and Settings\\Stefano\\Desktop\\FREE - Live At The BBC (2006 2cd)[Eac Flac]\\17 Ride On A Pony (take 3).wav

Pre-gap length 0:00:01.58

Peak level 80.9 %
Track quality 100.0 %
Test CRC DBC8222D
Copy CRC DBC8222D
Accurately ripped (confidence 2) [6EEB6CD9]
Copy OK

Track 18

Filename C:\\Documents and Settings\\Stefano\\Desktop\\FREE - Live At The BBC (2006 2cd)[Eac Flac]\\18 Ride On A Pony (take 4).wav

Pre-gap length 0:00:01.58

Peak level 72.3 %
Track quality 100.0 %
Test CRC 6616BD94
Copy CRC 6616BD94
Accurately ripped (confidence 2) [DEEC213E]
Copy OK

Track 19

Filename C:\\Documents and Settings\\Stefano\\Desktop\\FREE - Live At The BBC (2006 2cd)[Eac Flac]\\19 Ride On A Pony (take 5).wav

Pre-gap length 0:00:01.58

Peak level 83.3 %
Track quality 100.0 %
Test CRC 8FA8DABD
Copy CRC 8FA8DABD
Accurately ripped (confidence 2) [AA85C4D4]
Copy OK

Track 20

Filename C:\\Documents and Settings\\Stefano\\Desktop\\FREE - Live At The BBC (2006 2cd)[Eac Flac]\\20 Get Where I Belong.wav

Pre-gap length 0:00:01.58

Peak level 68.3 %
Track quality 100.0 %
Test CRC DD92E055
Copy CRC DD92E055
Accurately ripped (confidence 2) [79C7C9AA]
Copy OK


All tracks accurately ripped

No errors occurred

End of status report[/code]

[code]Exact Audio Copy V0.99 prebeta 3 from 28. July 2007

EAC extraction logfile from 26. May 2008, 22:51

Free / Live At The Bbc (In Concert)

Used drive : PLEXTOR DVDR PX-800A Adapter: 1 ID: 0

Read mode : Secure
Utilize accurate stream : Yes
Defeat audio cache : Yes
Make use of C2 pointers : No

Read offset correction : 48
Overread into Lead-In and Lead-Out : No
Fill up missing offset samples with silence : Yes
Delete leading and trailing silent blocks : No
Null samples used in CRC calculations : No
Used interface : Installed external ASPI interface
Gap handling : Appended to previous track

Used output format : Internal WAV Routines
Sample format : 44.100 Hz; 16 Bit; Stereo


TOC of the extracted CD

Track | Start | Length | Start sector | End sector
---------------------------------------------------------
1 | 0:00.00 | 5:23.61 | 0 | 24285
2 | 5:23.61 | 4:26.37 | 24286 | 44272
3 | 9:50.23 | 7:23.44 | 44273 | 77541
4 | 17:13.67 | 4:48.15 | 77542 | 99156
5 | 22:02.07 | 3:58.70 | 99157 | 117076
6 | 26:01.02 | 5:00.34 | 117077 | 139610
7 | 31:01.36 | 4:35.08 | 139611 | 160243
8 | 35:36.44 | 6:35.44 | 160244 | 189912
9 | 42:12.13 | 5:26.54 | 189913 | 214416
10 | 47:38.67 | 4:17.44 | 214417 | 233735
11 | 51:56.36 | 5:09.56 | 233736 | 256966


Track 1

Filename C:\\Documents and Settings\\Stefano\\Desktop\\FREE - Live At The BBC (2006 2cd)[Eac Flac]\\free bbc cd2\\01 The Hunter.wav

Pre-gap length 0:00:02.00

Peak level 68.3 %
Track quality 100.0 %
Test CRC 8325E1D3
Copy CRC 8325E1D3
Accurately ripped (confidence 3) [5E4A9D26]
Copy OK

Track 2

Filename C:\\Documents and Settings\\Stefano\\Desktop\\FREE - Live At The BBC (2006 2cd)[Eac Flac]\\free bbc cd2\\02 Woman.wav

Pre-gap length 0:00:01.58

Peak level 78.2 %
Track quality 100.0 %
Test CRC 174E5D07
Copy CRC 174E5D07
Accurately ripped (confidence 3) [F3563EFE]
Copy OK

Track 3

Filename C:\\Documents and Settings\\Stefano\\Desktop\\FREE - Live At The BBC (2006 2cd)[Eac Flac]\\free bbc cd2\\03 Free Me.wav

Pre-gap length 0:00:01.58

Peak level 53.5 %
Track quality 100.0 %
Test CRC 809AAED4
Copy CRC 809AAED4
Accurately ripped (confidence 3) [B765469D]
Copy OK

Track 4

Filename C:\\Documents and Settings\\Stefano\\Desktop\\FREE - Live At The BBC (2006 2cd)[Eac Flac]\\free bbc cd2\\04 Remember.wav

Pre-gap length 0:00:01.58

Peak level 68.3 %
Track quality 99.9 %
Test CRC 5759C4DD
Copy CRC 5759C4DD
Accurately ripped (confidence 3) [50394C6D]
Copy OK

Track 5

Filename C:\\Documents and Settings\\Stefano\\Desktop\\FREE - Live At The BBC (2006 2cd)[Eac Flac]\\free bbc cd2\\05 Fire And Water.wav

Pre-gap length 0:00:01.58

Peak level 84.7 %
Track quality 100.0 %
Test CRC C945D1D8
Copy CRC C945D1D8
Accurately ripped (confidence 3) [FABD586B]
Copy OK

Track 6

Filename C:\\Documents and Settings\\Stefano\\Desktop\\FREE - Live At The BBC (2006 2cd)[Eac Flac]\\free bbc cd2\\06 Be My Friend.wav

Pre-gap length 0:00:01.58

Peak level 68.3 %
Track quality 100.0 %
Test CRC BA82B431
Copy CRC BA82B431
Accurately ripped (confidence 3) [E9ED5598]
Copy OK

Track 7

Filename C:\\Documents and Settings\\Stefano\\Desktop\\FREE - Live At The BBC (2006 2cd)[Eac Flac]\\free bbc cd2\\07 Ride On A Pony.wav

Pre-gap length 0:00:01.58

Peak level 91.8 %
Track quality 100.0 %
Test CRC ED10A622
Copy CRC ED10A622
Accurately ripped (confidence 3) [C040D472]
Copy OK

Track 8

Filename C:\\Documents and Settings\\Stefano\\Desktop\\FREE - Live At The BBC (2006 2cd)[Eac Flac]\\free bbc cd2\\08 Mr Big.wav

Pre-gap length 0:00:01.58

Peak level 68.3 %
Track quality 100.0 %
Test CRC B1EBA978
Copy CRC B1EBA978
Accurately ripped (confidence 3) [F7166D82]
Copy OK

Track 9

Filename C:\\Documents and Settings\\Stefano\\Desktop\\FREE - Live At The BBC (2006 2cd)[Eac Flac]\\free bbc cd2\\09 Don\'t Say You Love Me.wav

Pre-gap length 0:00:01.58

Peak level 68.3 %
Track quality 100.0 %
Test CRC 23459CC4
Copy CRC 23459CC4
Accurately ripped (confidence 3) [56191164]
Copy OK

Track 10

Filename C:\\Documents and Settings\\Stefano\\Desktop\\FREE - Live At The BBC (2006 2cd)[Eac Flac]\\free bbc cd2\\10 Woman.wav

Pre-gap length 0:00:01.58

Peak level 66.8 %
Track quality 100.0 %
Test CRC 812F9559
Copy CRC 812F9559
Accurately ripped (confidence 3) [1CCC9916]
Copy OK

Track 11

Filename C:\\Documents and Settings\\Stefano\\Desktop\\FREE - Live At The BBC (2006 2cd)[Eac Flac]\\free bbc cd2\\11 All Right Now.wav

Pre-gap length 0:00:01.58

Peak level 66.8 %
Track quality 100.0 %
Test CRC 0F11976A
Copy CRC 0F11976A
Accurately ripped (confidence 3) [CE012543]
Copy OK


All tracks accurately ripped

No errors occurred

End of status report
[/code]

FREE   Live At The BBC (2006 2cd) (eac flac)[colombo bt org] preview 2

[color=blue]
CD1
01.waiting on you
02.sugar for mr morrison
03.i\'m a mover
04.over the green hills
05.songs of yesterday
06.broad daylight
07.woman
08.i\'ll be creepin\'
09.trouble on double time
10.mouthful of grass
11.all right now
12.fire and water
13-14.be my friend
15-19.ride on pony
20.get where i belong

CD2
01.the hunter
02.woman
03.free me
04.remember
05.fire and water
06.be my friend
07.ride on a pony
08.mr big
09.don\'t say you love me
10.woman
11.all right now
[/color]

FREE   Live At The BBC (2006 2cd) (eac flac)[colombo bt org] preview 3

FREE   Live At The BBC (2006 2cd) (eac flac)[colombo bt org] preview 4

[font=Verdana]
Anche per quanto riguarda i FREE, storico gruppo di hard rock blues inglese (1968-1973), la BBC ha fatto uscire (nel 2006) il classico doppio CD contenente le session che il gruppo di Paul Rodgers registrò tra il 1968 e il 1971.
Il disco 1 contiene le registrazioniin studio, il disco 2 le registrazioni dal vivo.
Mentre la qualità sonora del primo cd è buonissima, per il secondo cd le cose sono diverse non essendo stato possibile trovare i master originali. La qualità è quella di un bootleg soundboard. Detto questo, il ruvido fascino di queste registrazioni riesce a catturare comunque l’ascoltatore, il rock dei Free è davvero la quintessenza di un certo modo di intendere questa musica. Non aggiungo altro: amo da morire i Free e rischierei di perdermi in una iperbole più grande di me.

(note di nonantolaslim maggio08)
[/font]

FREE   Live At The BBC (2006 2cd) (eac flac)[colombo bt org] preview 5

[url=FREE   Live At The BBC (2006 2cd) (eac flac)[colombo bt org] preview 6

[font=Verdana]SEED:
in up da subito
weekend 24/24 tranne imprevisti
giorni feriali dalle 20 alle 8
in seed fino a 10 completati
banda 20/40 kbs[/font]

related torrents

Torrent name

health leech seeds Size
 


comments (0)

Main Menu