Thriller

The Bedroom Window (1987) WS Opt MULTISUBS

  • Download 5x Faster
  • Download torrent
  • Direct Download
  • Rate this torrent +  |  -
The Bedroom Window (1987) WS Opt MULTISUBS

Free and Direct Download with Usenet.nl 300GB+ free


Torrent info

Name:The Bedroom Window (1987) WS Opt MULTISUBS

Total Size: 701.82 MB

Magnet: Magnet Link

Seeds: 0

Leechers: 0

Stream: Watch Online @ Movie4u

Last Updated: 0000-00-00 00:00:00 (Update Now)

Torrent added: 2009-08-30 00:21:54





Torrent Files List


Info about this release.txt (Size: 701.82 MB) (Files: 12)

 Info about this release.txt

4.62 KB

 Optional subtitles

  Dansk.rar

665.21 KB

  Deutsch.rar

684.94 KB

  Espanol.rar

677.83 KB

  Italiano.rar

659.01 KB

  Nederlands.rar

658.34 KB

  Norsk.rar

643.88 KB

  Notes on subtitle files and burning of discs.txt

2.08 KB

  Portugues.rar

647.13 KB

  Suomeksi.rar

702.52 KB

  Svenska.rar

623.12 KB

 The Bedroom Window (1987) [Thriller] (Widescr.Opt.MULTISUBS)_Kuth.avi

695.99 MB
 

Announce URL:

Torrent description

The Bedroom Window (1987)

Optional subtitles in separate idx/sub files:
Danish, Dutch, Finnish, German, Italian, Norwegian, Portuguese, Spanish, Swedish

With Steve Guttenberg (Cocoon), Isabelle Huppert and Elizabeth McGovern

Rare, classic Hitchcock-like thriller: A young man (Guttenberg) is naked in bed with his boss\\\' wife (Huppert) when an attempted murder takes place outside the bedroom window. Wanting to keep the love affair secret, he soon becomes the main suspect in the investigation.

Picture quality (color) on the DVD is exceptionally good for such an old film.

Widescreen XviD 2-pass 720x288, original mono sound AC3.
Burn tested, runs well in both my standalone DivX players.

Format/Info : Audio Video Interleave
File size : 696 MiB
Duration : 1h 48mn
Overal bit rate : 897 Kbps

Video
Format : MPEG-4 Visual
Format profile : Streaming [email protected]
Format settings, BVOP : Yes
Format settings, QPel : No
Format settings, GMC : No warppoints
Format settings, Matrix : Default
Muxing mode : Packet Bitstream
Codec ID : XVID
Codec ID/Hint : XviD
Duration : 1h 48mn
Bit rate : 759 Kbps
Width : 720 pixels
Height : 288 pixels
Display aspect ratio : 2.500
Frame rate : 25.000 fps
Resolution : 8 bits
Colorimetry : 4:2:0
Scan type : Progressive
Bits/(Pixel*Frame) : 0.146
Stream size : 589 MiB
Writing library : XviD 1.2.0.dev47 (UTC 2006-11-01)

Audio
Format : MPEG Audio
Format version : Version 1
Format profile : Layer 3
Codec ID : 55
Codec ID/Hint : MP3
Duration : 1h 48mn
Bit rate mode : Constant
Bit rate : 128 Kbps
Minimum bit rate : 128 Kbps
Channel(s) : 2 channels
Sampling rate : 48.0 KHz
Resolution : 16 bits
Stream size : 99.3 MiB
Writing library : LAME3.97
Encoding settings : CBR

Source: PAL native 6.4 GiB (note that PAL/NTSC will give no problems for avi
files).

Thanks to Kuthumi!

Cover image

related torrents

Torrent name

health leech seeds Size
 

comments (0)

Main Menu