Thriller

THE BADGE DEWSTRR

  • Download 5x Faster
  • Download torrent
  • Direct Download
  • Rate this torrent +  |  -
THE BADGE DEWSTRR

Anonymous and Direct Download 300GB+ free


Torrent info

Name:THE BADGE DEWSTRR

Total Size: 1.09 GB

Magnet: Magnet Link

Seeds: 0

Leechers: 0

Stream: Watch Online @ Movie4u

Last Updated: 2009-12-02 23:24:56 (Update Now)

Torrent added: 2009-08-30 00:20:12




Torrent Files List


THE BADGE.DEWSTRR.divx (Size: 1.09 GB) (Files: 12)

 THE BADGE.DEWSTRR.divx

1.09 GB

 Torrent_downloaded_from_Demonoid.com.txt

0.05 KB

 badge 1.jpg

13.53 KB

 badge 10.jpg

29.66 KB

 badge 2.jpg

24.46 KB

 badge 3.jpg

27.25 KB

 badge 4.jpg

22.72 KB

 badge 5.jpg

35.97 KB

 badge 6.jpg

15.66 KB

 badge 7.jpg

14.15 KB

 badge 8.jpg

16.51 KB

 badge 9.jpg

27.14 KB
 

Announce URL: http://inferno.demonoid.com:3407/announce

Torrent description

Movies : Thriller : DVD Rip : English

billy bob plays a somewhat seedy sheriff doing what the good old boy judge wants until a accident happens that turns out to be the murder of a transsexual and he decides to investigate even though it points to the judge being involved possibly

http://www.imdb.com/title/tt0286493/

Video
Format : MPEG-4 Visual
Format settings, BVOP : Yes
Format settings, QPel : No
Format settings, GMC : No warppoints
Format settings, Matrix : Default
Muxing mode : Packed bitstream
Codec ID : DX50
Codec ID/Hint : DivX 5
Duration : 1h 35mn
Bit rate : 1 501 Kbps
Width : 640 pixels
Height : 480 pixels
Display aspect ratio : 16:9
Frame rate : 25.000 fps
Resolution : 24 bits
Colorimetry : 4:2:0
Scan type : Progressive
Bits/(Pixel*Frame) : 0.195
Stream size : 1.00 GiB (92%)
Title : Video
Writing library : DivX 6.8.2 (UTC 2008-05-17)

Audio
Format : MPEG Audio
Format version : Version 1
Format profile : Layer 3
Codec ID : 55
Codec ID/Hint : MP3
Duration : 1h 35mn
Bit rate mode : Constant
Bit rate : 128 Kbps
Channel(s) : 2 channels
Sampling rate : 48.0 KHz
Resolution : 16 bits
Stream size : 87.4 MiB (8%)
Alignment : Split accross interleaves
Interleave, duration : 40 ms (1.00 video frame)
Interleave, preload duration : 500 ms
Title : Audio

General
Complete name : THE BADGE.DEWSTRR\Torrent_downloaded_from_Demonoid.com.txt
File size : 47.0 Bytes

Image: 1 Image: 2
Format : JPEG Format: JPEG
Width : 535 pixels Width: 533 pixels
Height : 298 pixels Height: 295 pixels
Resolution : 24 bits Resolution : 24 bits

Image: 3 Image: 4
Format : JPEG Format : JPEG
Width : 531 pixels Width : 533 pixels
Height : 296 pixels Height : 295 pixels
Resolution : 24 bits Resolution : 24 bits

Image: 5 Image: 6
Format : JPEG Format : JPEG
Width : 534 pixels Width : 535 pixels
Height : 294 pixels Height : 294 pixels
Resolution : 24 bits Resolution : 24 bits

Image: 7 Image: 8
Format : JPEG Format : JPEG
Width : 536 pixels Width : 533 pixels
Height : 294 pixels Height : 297 pixels
Resolution : 24 bits Resolution : 24 bits

Image: 9 Image: 10
Format : JPEG Format : JPEG
Width : 538 pixels Width : 535 pixels
Height : 295 pixels Height : 296 pixels
Resolution : 24 bits Resolution : 24 bits

THE BADGE  DEWSTRR preview 0
THE BADGE  DEWSTRR preview 1
THE BADGE  DEWSTRR preview 2
THE BADGE  DEWSTRR preview 3
THE BADGE  DEWSTRR preview 4
THE BADGE  DEWSTRR preview 5
THE BADGE  DEWSTRR preview 6
THE BADGE  DEWSTRR preview 7
THE BADGE  DEWSTRR preview 8
THE BADGE  DEWSTRR preview 9

burned with windows [with a couple other movies] and played on my philips divx ultra certified dvd player

related torrents

Torrent name

health leech seeds Size
 


comments (0)

Main Menu