Thriller

The Alphabet Killer[2008] Dvdrip Xvid [Engsubs] AC3[5 1] RoCK&BlueLadyRG

  • Download 5x Faster
  • Download torrent
  • Direct Download
  • Rate this torrent +  |  -
The Alphabet Killer[2008] Dvdrip Xvid [Engsubs] AC3[5 1] RoCK&BlueLadyRG

Free and Direct Download with Usenet 300GB+ free


Torrent info

Name:The Alphabet Killer[2008] Dvdrip Xvid [Engsubs] AC3[5 1] RoCK&BlueLadyRG

Total Size: 1.46 GB

Magnet: Magnet Link

Seeds: 0

Leechers: 0

Stream: Watch Online @ Movie4u

Last Updated: 2010-12-28 09:16:59 (Update Now)

Torrent added: 2009-08-30 00:19:05




Torrent Files List


The.Alphabet.Killer[2008].Dvdrip.Xvid.[Engsubs].AC3[5.1]-RoCK&BlueLadyRG.avi (Size: 1.46 GB) (Files: 3)

 The.Alphabet.Killer[2008].Dvdrip.Xvid.[Engsubs].AC3[5.1]-RoCK&BlueLadyRG.avi

1.46 GB

 The.Alphabet.Killer[2008].Dvdrip.Xvid.[Engsubs].AC3[5.1]-RoCK&BlueLadyRG.nfo

5.23 KB

 The.Alphabet.Killer[2008].Dvdrip.Xvid.[Engsubs].AC3[5.1]-RoCK&BlueLadyRG.srt

81.06 KB
 

Announce URL: http://vip.tracker.thepiratebay.org:80/announce

Torrent description


RoCK & BlueLady RG

*******************************************************************************
Proudly presents: The Alphabet Killer (2008)
*******************************************************************************

-------------------------------------------------------------------------------
General Information
-------------------------------------------------------------------------------
Type : Movie
Burn Tested : Yes
Subtitles : English for the hearing impeared
: Dutch can be found on http://www.genesis-sp.com

Format : AVI
Format/Info : Audio Video Interleave
File size : 1.46 GiB
Duration : 1h 38mn
Overall bit rate : 2 136 Kbps
Writing application : VirtualDubMod 1.5.10.2 (build 2540/release)
Writing library : VirtualDub build 30009/release

Audio Enlish
Format : AC-3
Format/Info : Audio Coding 3
Codec ID : 2000
Duration : 1h 38mn
Bit rate mode : Constant
Bit rate : 448 Kbps
Channel(s) : 6 channels
Channel positions : Front: L C R, Surround: L R, LFE
Sampling rate : 48.0 KHz
Video delay : 1s 0ms
Stream size : 314 MiB (21%)
Alignment : Split accross interleaves
Interleave, duration : 33 ms (1.00 video frame)
Interleave, preload duration : 500 ms

Video
Format : MPEG-4 Visual
Format settings, BVOP : No
Format settings, QPel : No
Format settings, GMC : No warppoints
Format settings, Matrix : Default
Codec ID : XVID
Codec ID/Hint : XviD
Duration : 1h 38mn
Bit rate : 1 677 Kbps
Width : 720 pixels
Height : 304 pixels
Display aspect ratio : 2.35
Frame rate : 29.970 fps
Resolution : 24 bits
Colorimetry : 4:2:0
Scan type : Progressive
Bits/(Pixel*Frame) : 0.256
Stream size : 1.15 GiB (78%)
Writing library : XviD 1.0.3 (UTC 2004-12-20)

Source : Retail-DVD
Original Format : NTSC
Genre : Drama | Thriller
IMDb Rating : 6.2 (431 Votes)
Movie Information : http://www.imdb.com/title/tt0818165/

-------------------------------------------------------------------------------
Post Information
-------------------------------------------------------------------------------
Posted by............: RoCK (http://www.genesis-sp.com)
Posted on............: 26-12-2008

-------------------------------------------------------------------------------
Release Notes
-------------------------------------------------------------------------------
A ten year old girl is found brutally murdered outside the small blue-collar
city of Rochester, New York, and obsessed police detective Megan Paige (Eliza
Dushku of BUFFY THE VAMPIRE SLAYER and DOLLHOUSE) suffers a mental breakdown
while trying to solve the crime. But when the child-killings resume two years
later, MeganÆs return to the investigation also brings back her own horrific
hallucinations. Even if she can prove a ædouble initialÆ connection to the
slayings, will she hang onto her sanity long enough to catch a psychopath? Cary
Elwes (SAW), Michael Ironside (STARSHIP TROOPERS), Bill Moseley (THE DEVILÆS REJECTS),
Carl Lumbly (ALIAS) and Academy Award« winner Timothy Hutton co-star in this
chilling thriller directed by Rob Schmidt.

Director: Rob Schmidt

Writer : Tom Malloy

Cast :

Eliza Dushku ... Megan Paige
Cary Elwes ... Capt. Kenneth Shine
Timothy Hutton ... Richard Ledge
Tom Malloy ... Stephen Harper
Michael Ironside ... Captain Nathan Norcross
Bill Moseley ... Carl Tanner
Meltem Cumbul ... Elisa Castillo
Carl Lumbly ... Dr. Ellis Parks
Brian Scannell ... Jay Castillo
Jack McGee ... Hank
Larry Hankin ... Perry

Enjoy this movie!



------------------------------------------------------------------------------------------
Announcement
------------------------------------------------------------------------------------------
I decided to drop the 1cd versions and replace them with movies in MKV format. This means
smaller filesizes with higher quality. The movies you can watch in VLC or download the x264
codec!

If you want to decode it and burn it on dvd use convertxtodvd 3


RoCK.






------------------------------------------------------------------------------------------
You can find us both at: http://www.genesis-sp.com/
------------------------------------------------------------------------------------------

related torrents

Torrent name

health leech seeds Size
 

comments (0)

Main Menu