Thriller

Telefon 1977 dvdrip xvid eng mp3 charles bronson

  • Download 5x Faster
  • Download torrent
  • Direct Download
  • Rate this torrent +  |  -
Telefon 1977 dvdrip xvid eng mp3 charles bronson

Free and Direct Download with Usenet.nl 300GB+ free


Torrent info

Name:Telefon 1977 dvdrip xvid eng mp3 charles bronson

Total Size: 1.46 GB

Magnet: Magnet Link

Seeds: 1

Leechers: 0

Stream: Watch Online @ Movie4u

Last Updated: 2016-06-02 20:01:40 (Update Now)

Torrent added: 2009-08-30 00:16:47





Torrent Files List


1977.Telefon.dvdrip.xvid.eng.mp3.avi (Size: 1.46 GB) (Files: 2)

 1977.Telefon.dvdrip.xvid.eng.mp3.avi

1.46 GB

 Torrent downloaded from Demonoid.com.txt

0.05 KB
 

tracker

leech seeds
 

Torrent description

Note: NOT MY RIP....found it on Cinemageddon (private site) and thought I'd share because it is not here.

PLEASE: SEED AND COMMENT

Synopsis
The KGB's looking for one of their people, a man named Dalchimsky cause he has stolen something important but unfortunately he manages to get through the border. Later in the U.S. some seemingly ordinary people after receiving a phone call go out and destroy key American military installations. Back in the U.S.S.R. General Strelsky and Colonel Malchenko send for Grigori Borzov, a KGB agent who has been to the U.S. on missions before. They inform him that after the U-2 incident in fear of the possibility that a war with the U.S. will occur; they were part of an operation called TELEFON that involved recruiting young agents and then brainwashing them into believing that they are Americans they would then assume the identity of an American who died a long and who would be their age now. They would be situated in a city that is near or where a key U.S. military installation is location. They were also programmed to destroy upon receiving the command phrase. They have been fortunate that they have never had to send them on their missions. But they believe that Dalchimsky stole the book that lists all the TELEFON agents and is now sending them out on their suicide missions. It also seems that the current KGB Chairman is unaware of TELEFON so Strelsky and Malchenko want Borzov to go to America and find Dalchimsky before he starts World War 3. Borzov who is endowed with a photographic memory, memorizes the second TELEFON book and goes to America and is aided by Barbara.

Cast
Charles Bronson ... Major Grigori Borzov
Lee Remick ... Barbara
Donald Pleasence ... Nicolai Dalchimsky
Tyne Daly ... Dorothy Putterman
Alan Badel ... Colonel Malchenko
Patrick Magee ... General Strelsky
Sheree North ... Marie Wills
Frank Marth ... Harley Sandburg
Helen Page Camp ... Emma Stark
Roy Jenson ... Doug Stark
Jacqueline Scott ... Mrs. Hassler
Ed Bakey ... Carl Hassler
John Mitchum ... Harry Bascom
Iggie Wolfington ... Father Stuart Diller
Hank Brandt ... William Enders

Tech Stuff

Burn Test: No

Format : AVI
Format/Info : Audio Video Interleave
File size : 1.46 GiB
Duration : 1h 42mn
Overall bit rate : 2 033 Kbps
Writing application : VirtualDubMod 1.5.4.1 (build 2178/release)
Writing library : VirtualDubMod build 2178/release

Video

ID : 0
Format : MPEG-4 Visual
Format profile : Advanced [email protected]
Format settings, BVOP : No
Format settings, QPel : No
Format settings, GMC : No warppoints
Format settings, Matrix : Custom
Codec ID : XVID
Codec ID/Hint : XviD
Duration : 1h 42mn
Bit rate : 1 834 Kbps
Width : 720 pixels
Height : 416 pixels
Display aspect ratio : 16/9
Frame rate : 23.976 fps
Resolution : 24 bits
Colorimetry : 4:2:0
Scan type : Progressive
Bits/(Pixel*Frame) : 0.255
Stream size : 1.32 GiB (90%)
Writing library : XviD 1.3.0.dev55

Audio
ID : 1
Format : AC-3
Format/Info : Audio Coding 3
Codec ID : 2000
Duration : 1h 42mn
Bit rate mode : Constant
Bit rate : 192 Kbps
Channel(s) : 1 channel
Channel positions : C
Sampling rate : 48.0 KHz
Video delay : 8ms
Stream size : 141 MiB (9%)
Alignment : Split accross interleaves
Interleave, duration : 96 ms (2.30 video frames)
Interleave, preload duration : 96 ms
Language : English

Seed 'Til It Bleeds!!!

Experimenting with a new open tracker to replace the now defunct TPB: http://tracker.openbittorrent.com:80/announce. This won't effect demonoid because I am using their tracker in the first position here but I will post elsewhere...but never again on TPB

related torrents

Torrent name

health leech seeds Size
 

comments (0)

Main Menu