Thriller

Summer Scars (2007) (UNRATED) (DVDRip) KooKoo [1337x]

  • Download 5x Faster
  • Download torrent
  • Direct Download
  • Rate this torrent +  |  -
Summer Scars (2007) (UNRATED) (DVDRip) KooKoo [1337x]

Free and Direct Download with Usenet 300GB+ free


Torrent info

Name:Summer Scars (2007) (UNRATED) (DVDRip) KooKoo [1337x]

Total Size: 701.07 MB

Magnet: Magnet Link

Seeds: 0

Leechers: 0

Stream: Watch Online @ Movie4u

Last Updated: 2011-10-29 18:25:52 (Update Now)

Torrent added: 2009-08-30 00:07:51




Torrent Files List


1337x.txt (Size: 701.07 MB) (Files: 3)

 1337x.txt

0.02 KB

 KooKoo.nfo

7.80 KB

 Summer Scars (2007) (UNRATED) (DVDRip) KooKoo [1337x].avi

701.06 MB
 

Announce URL:

Torrent description


ÛÛÛÛÛÛÛÛÛÛÛÛÛÛÛÛÛÛÛÛÛÛÛÛÛÛÛÛÛÛÛÛÛÛÛÛÛÛÛÛÛÛÛÛÛÛÛÛÛÛÛÛÛÛÛÛÛÛÛÛÛÛÛÛÛÛÛ
ÛÛ ÛÛÛ ÛÛ ÛÛÛ ÛÛ ÛÛÛ ÛÛ ÛÛÛ ÛÛÛ
ÛÛ ÛÛ ÛÛ Û Û ÛÛ ÛÛ Û ÛÛ
ÛÛ Û ÛÛÛ Û Û Û ÛÛÛ Û ÛÛ
ÛÛ ÛÛÛÛ ÛÛ Û ÛÛ Û ÛÛÛÛ ÛÛ Û ÛÛ ÛÛ
ÛÛ ÛÛÛÛÛ ÛÛ Û ÛÛ Û ÛÛÛÛÛ ÛÛ Û ÛÛ ÛÛ
ÛÛ ÛÛÛÛÛÛ ÛÛ Û ÛÛ Û ÛÛÛÛÛÛ ÛÛ Û ÛÛ ÛÛ
ÛÛ ÛÛÛÛÛÛ ÛÛ Û ÛÛ Û ÛÛÛÛÛÛ ÛÛ Û ÛÛ ÛÛ
ÛÛ ÛÛÛÛÛ ÛÛ Û ÛÛ Û ÛÛÛÛÛ ÛÛ Û ÛÛ ÛÛ
ÛÛ ÛÛÛÛ Û Û ÛÛÛÛ Û ÛÛ
ÛÛ Û ÛÛÛ Û Û Û ÛÛÛ Û ÛÛ
ÛÛ ÛÛ ÛÛÛ ÛÛÛ ÛÛ ÛÛ ÛÛÛ ÛÛÛ ÛÛÛ
ÛÛ ÛÛÛ ÛÛÛÛÛÛÛÛÛÛÛÛÛÛÛÛÛÛÛ ÛÛÛ ÛÛÛÛÛÛÛÛÛÛÛÛÛÛÛÛÛÛÛÛ
ÛÛÛÛÛÛÛÛÛÛÛÛÛÛÛÛÛÛÛÛÛÛÛÛÛÛÛÛÛÛÛÛÛÛÛÛÛÛÛÛÛÛÛÛÛÛÛÛÛÛÛÛÛÛÛÛÛÛÛÛÛÛÛÛÛÛÛ



Movie Name: Summer Scars
Genre: Horror | Thriller | Drama
Release Date: 9/30/08 DVD Released
Country: UK
Certification: R
IMDB Link: http://www.imdb.com/title/tt0847527/

Plot: This confrontational coming-of-age thriller is a haunting look into
the destruction of innocence and the depths of fear. When a gang of
raucous teens play hooky in the woods, they cross paths with a
mysterious drifter. Preying on their adolescent curiosity and
naivete, the sadistic vagabond easily wins them over only to inflict
humiliating and torturous mind games with a rusty switchblade and
a gun. Trembling and desperate, these kids realize that their only
chance at survival is to embrace the darkness within and fight back
with some wicked games of their own.

Rip Details:


General
Format : AVI
File size : 701 MiB
Duration : 1h 8mn
Overall bit rate : 1440 Kbps
Writing application : VirtualDubMod 1.5.10.2 (build 2540/release)
Writing library : VirtualDubMod build 2540/release
Copyright : Ripped By KooKoo

Video
Format : MPEG-4 Visual
Format profile : Streaming Video@L1
Format settings, BVOP : Yes
Format settings, QPel : No
Format settings, GMC : No warppoints
Format settings, Matrix : Default
Muxing mode : Packet Bitstream
Codec ID : XVID
Codec ID/Hint : XviD
Duration : 1h 8mn
Bit rate : 1300 Kbps
Width : 624 pixels
Height : 336 pixels
Display aspect ratio : 1.857
Frame rate : 29.970 fps
Resolution : 8 bits
Colorimetry : 4:2:0
Scan type : Progressive
Bits/(Pixel*Frame) : 0.207
Stream size : 633 MiB (90%)
Writing library : XviD 1.2.0.dev47 (UTC 2006-11-01)

Audio
Format : MPEG Audio
Format version : Version 1
Format profile : Layer 3
Codec ID : 55
Codec ID/Hint : MP3
Duration : 1h 8mn
Bit rate mode : Constant
Bit rate : 128 Kbps
Minimum bit rate : 128 Kbps
Channel(s) : 2 channels
Sampling rate : 48.0 KHz
Resolution : 16 bits
Stream size : 62.3 MiB (9%)
Alignment : Aligned on interleaves
Interleave, duration : 33 ms (1.00 video frame)
Interleave, preload duration : 504 ms
Writing library : LAME3.97
Encoding settings : CBR


Additional Details: Audio is in English. Subtitles are not included.
Don't forget to visit me at 1337x.org! Come hang out with your crazy pal
in the chat room! :-)


Summer Scars (2007) (UNRATED) (DVDRip) KooKoo [1337x]

related torrents

Torrent name

health leech seeds Size
 

comments (0)

Main Menu