Thriller

Roman Polanski Repulsion (1965) DVDRip x264

  • Download 5x Faster
  • Download torrent
  • Direct Download
  • Rate this torrent +  |  -
Roman Polanski Repulsion (1965) DVDRip x264

Anonymous and Free Direct Download 300GB+


Torrent info

Name:Roman Polanski Repulsion (1965) DVDRip x264

Total Size: 1.46 GB

Magnet: Magnet Link

Seeds: 0

Leechers: 0

Stream: Watch Online @ Movie4u

Last Updated: 2015-09-23 00:27:07 (Update Now)

Torrent added: 2009-08-30 00:00:34



VPN For Torrents

Torrent Files List


Repulsion.1965.DVDRip.x264.AC3.Eng.Subs.mkv (Size: 1.46 GB) (Files: 1)

 Repulsion.1965.DVDRip.x264.AC3.Eng.Subs.mkv

1.46 GB
 

tracker

leech seeds
 

Torrent description

Notice: make sure your PC can play x264 encodes.

Plot: Left alone when her sister goes on vacation, a sexually repressed young beauty goes insane with surreal fantasies of seduction and rape.

Original English audio
Subtitles: English, Spanish (Castilian), Russian

General
Format : Matroska
File size : 1.46 GiB
Duration : 1h 40mn
Overall bit rate : 2 073 Kbps
Encoded date : UTC 2009-06-14 22:51:04
Writing application : mkvmerge v2.9.5 ('Tu es le seul') built on Jun 7 2009 11:07:07
Writing library : libebml v0.7.7 + libmatroska v0.8.1

Video
ID : 3
Format : AVC
Format/Info : Advanced Video Codec
Format profile : [email protected]
Format settings, CABAC : Yes
Format settings, ReFrames : 16 frames
Muxing mode : Container [email protected]
Codec ID : V_MPEG4/ISO/AVC
Duration : 1h 40mn
Bit rate : 1 836 Kbps
Nominal bit rate : 1 877 Kbps
Width : 704 pixels
Height : 560 pixels
Display aspect ratio : 16/9
Frame rate : 25.000 fps
Resolution : 24 bits
Colorimetry : 4:2:0
Scan type : Progressive
Bits/(Pixel*Frame) : 0.186
Stream size : 1.29 GiB (89%)
Writing library : x264 core 67 r1165M 6841c5e
Encoding settings : cabac=1 / ref=16 / deblock=1:0:0 / analyse=0x3:0x133 / me=umh / subme=8 / psy_rd=1.0:0.0 / mixed_ref=1 / me_range=16 / chroma_me=0 / trellis=2 / 8x8dct=1 / cqm=0 / deadzone=21,11 / chroma_qp_offset=-4 / threads=3 / nr=0 / decimate=0 / mbaff=0 / bframes=7 / b_pyramid=1 / b_adapt=2 / b_bias=0 / direct=3 / wpredb=1 / keyint=250 / keyint_min=25 / scenecut=40 / rc=2pass / bitrate=1877 / ratetol=1.0 / qcomp=0.60 / qpmin=10 / qpmax=51 / qpstep=4 / cplxblur=20.0 / qblur=0.5 / ip_ratio=1.40 / pb_ratio=1.30 / aq=1:1.00 / zones=149899,150849,q=40

Audio
ID : 1
Format : AC-3
Format/Info : Audio Coding 3
Codec ID : A_AC3
Duration : 1h 40mn
Bit rate mode : Constant
Bit rate : 192 Kbps
Channel(s) : 2 channels
Channel positions : L R
Sampling rate : 48.0 KHz
Stream size : 138 MiB (9%)
Language : English

Text #1
ID : 2
Format : VobSub
Codec ID : S_VOBSUB
Codec ID/Info : The same subtitle format used on DVDs
Language : Spanish

Text #2
ID : 4
Format : UTF-8
Codec ID : S_TEXT/UTF8
Codec ID/Info : UTF-8 Plain Text
Language : English

Text #3
ID : 5
Format : VobSub
Codec ID : S_VOBSUB
Codec ID/Info : The same subtitle format used on DVDs
Language : Russian

*********************************** FREAKYFLICKS ************************************

'If we all seed just 1:1, give at least what we take, this torrent will NEVER DIE'

related torrents

Torrent name

health leech seeds Size
 


comments (0)

Main Menu