Thriller

Repulsion 1965 CRITERION DVDRip x264 AC3 KARiNA

  • Download 5x Faster
  • Download torrent
  • Direct Download
  • Rate this torrent +  |  -
Repulsion 1965 CRITERION DVDRip x264 AC3 KARiNA

Anonymous and Direct Download 300GB+ free


Torrent info

Name:Repulsion 1965 CRITERION DVDRip x264 AC3 KARiNA

Total Size: 1.76 GB

Magnet: Magnet Link

Seeds: 0

Leechers: 0

Stream: Watch Online @ Movie4u

Last Updated: 2015-11-07 00:50:51 (Update Now)

Torrent added: 2009-08-29 23:54:30




Torrent Files List


Repulsion.1965.CRITERION.DVDRip.x264.AC3-KARiNA.mkv (Size: 1.76 GB) (Files: 3)

 Repulsion.1965.CRITERION.DVDRip.x264.AC3-KARiNA.mkv

1.76 GB

 repulsion-KARiNA.nfo

5.43 KB

 Torrent downloaded from Demonoid.com.txt

0.05 KB
 

tracker

leech seeds
 

Torrent description

88 a8P db 88888888ba 88 888b 88 db
88 ,88' d88b 88 "8b "" 8888b 88 d88b
88 ,88" d8'`8b 88 ,8P 88 `8b 88 d8'`8b
88,d88' d8' `8b 88aaaaaa8P' 88 88 `8b 88 d8' `8b
8888"88, d8YaaaaY8b 88""""88' 88 88 `8b 88 d8YaaaaY8b
88P Y8b d8""""""""8b 88 `8b 88 88 `8b 88 d8""""""""8b
88 "88, d8' `8b 88 `8b 88 88 `8888 d8' `8b
88 Y8b d8' `8b 88 `8b 88 88 `888 d8' `8b
-------------------------------------------------------------------------------
-------------------------------------
[ Repulsion.1965.CRITERION.DVDRip.x264.AC3-KARiNA.mkv ]
-------------------------------------

==================================[ Synopsis ]==================================

Repulsion | UK | 1965 | Directed by Roman Polanski

Roman Polanski followed up his international breakthrough Knife in the Water with
this controversial, chilling tale of psychosis. Catherine Deneuve is Carol, a fragile,
frigid young beauty cracking up in her London flat when left alone by her vacationing
sister. She is soon haunted by specters real and imagined, and her insanity grows to
a violent, hysterical pitch. Thanks to its disturbing detail and Polanski? adeptness
at turning claustrophobic space into an emotional minefield, Repulsion is a surreal,
mind-bending odyssey into personal horror, and it remains one of cinema? most
shocking psychological thrillers.

[ IMdB: http://www.imdb.com/title/tt0059646/ | Rating: 7.9 / 10 (10,179 votes) ]

=================================[ General ]===================================

Complete name : Repulsion.1965.CRITERION.DVDRip.x264.AC3-KARiNA.mkv
Format : Matroska
File size : 1.76 GiB
Duration : 1h 45mn
Overall bit rate : 2 389 Kbps
Source : Criterion NTSC DVD9

=================================[ Video ]=====================================

Format : AVC
Codec ID : V_MPEG4/ISO/AVC
Bit rate : 1 956 Kbps
Nominal bit rate : 2 000 Kbps
Width : 720 pixels
Height : 480 pixels
Display aspect ratio : 16/9
Frame rate : 23.976 fps
Standard : NTSC
Resolution : 24 bits
Colorimetry : 4:2:0
Scan type : Progressive
Bits/(Pixel*Frame) : 0.236
Stream size : 1.44 GiB (82%)
Title : Track 1
Writing library : x264 core 65

=================================[ Audio ]=====================================

[] Track 1

Format : AC-3
Codec ID : A_AC3
Bit rate mode : Constant
Bit rate : 192 Kbps
Channel(s) : 1 channel
Channel positions : C
Sampling rate : 48.0 KHz
Stream size : 145 MiB (8%)
Title : Track 1
Language : English

[] Track 2 - Commentary by Roman Polanksi and actress Catherine Deneuve

Format : AC-3
Format/Info : Audio Coding 3
Codec ID : A_AC3
Bit rate mode : Constant
Bit rate : 192 Kbps
Channel(s) : 1 channel
Channel positions : C
Sampling rate : 48.0 KHz
Stream size : 145 MiB (8%)
Title : Track 2 (Commentary)
Language : English

=================================[ Subtitles ]=================================

Format : VobSub
Codec ID : S_VOBSUB
Title : Track 1
Language : English

=================================[ Chapters ]==================================

00:00:00.000 : :Chapter 1
00:02:17.637 : :Chapter 2
00:08:36.182 : :Chapter 3
00:19:34.006 : :Chapter 4
00:27:01.252 : :Chapter 5
00:36:04.996 : :Chapter 6
00:42:29.046 : :Chapter 7
00:54:32.102 : :Chapter 8
01:03:46.989 : :Chapter 9
01:12:31.680 : :Chapter 10
01:17:34.816 : :Chapter 11
01:29:54.522 : :Chapter 12
01:35:18.713 : :Chapter 13
01:44:31.431 : :Chapter 14
01:45:16.193 : :Chapter 15

=================================[ KARiNA ]===================================

related torrents

Torrent name

health leech seeds Size
 


comments (0)

Main Menu