Thriller

Red German DVDRip XviD

  • Download 5x Faster
  • Download torrent
  • Direct Download
  • Rate this torrent +  |  -
Red German DVDRip XviD

Free and Direct Download with Usenet 300GB+ free


Torrent info

Name:Red German DVDRip XviD

Total Size: 699.00 MB

Magnet: Magnet Link

Seeds: 0

Leechers: 0

Stream: Watch Online @ Movie4u

Last Updated: 2009-12-10 06:14:05 (Update Now)

Torrent added: 2009-08-29 23:52:24




Torrent Files List


Red.DVDRip.XviD.avi (Size: 699.00 MB) (Files: 4)

 Red.DVDRip.XviD.avi

698.99 MB

 Red.DVDRip.XviD.jpg

10.50 KB

 Red.DVDRip.XviD.nfo

3.05 KB

 Red.DVDRip.XviD.txt

3.05 KB
 

Announce URL: http://speed-booster.hopto.org/announce.php

Torrent description

Red

Store Date...: 13.03.2009
Cinema Date...: STV
Genre..........: Drama Thriller
Rating.........: FSK 16
Runtime........: 89 Minute

Rentner Avery sitzt friedlich beim Angeln, als eine Gruppe streitlustiger Hochschler aus dem Unterholz bricht und ohne nheren Anlass seinen Jagdhund erschiet. Auer sich vor Emprung konfrontiert Avery daraufhin erst die Eltern der stadtbekannten Sorgenknaben, um, als dieses wenig fruchtet, Hilfe beim Gesetz zu suchen. Doch die Strafe fr Tierqulerei ist gering, ein Verfahren die Mhen nicht wert. Also wendet sich Avery an die Medien. Dieser Schritt lsst die angespannte Situation endgltig eskalieren.

Brian Cox, Veteran des modernen Hollywoodkinos und immer noch gutbeschftiger Gast in Popcorn ("Die Bourne Verschwrung&quot wie Arthouse ("L.I.E.&quot, fhrt als unbeugsamer Michael Kohlhaas einen Feldzug fr die Gerechtigkeit wider reuelose Rowdies sowie ihre wahlweise bornierten (Tom Sizemore) oder selbst kriminellen (Robert Englund) Erzeuger. Stark gespieltes, mit Bedacht und fr non-Pay-TV-Verhltnisse relativ kantig inszeniertes Drama, das zum Nachdenken und gegebenenfalls auch Streiten anregt. Basierend auf einem Buch von Jack Ketchum.

Format : AVI
Format/Info : Audio Video Interleave
Dateigre : 699 MiB
Duration : 1h 29min
Gesamte Bitrate : 1094 Kbps
Verwendetes Programm : VirtualDubMod 1.5.10.3 www.virtualdub-fr.org (build 2550/release)
verwendete Encoder-Bibliothek : VirtualDubMod build 2550/release

Video
Format : MPEG-4 Visual
Format profile : Streaming Video@L1
Format settings, BVOP : Ja
Format settings, QPel : Nein
Format settings, GMC : No warpoints
Format settings, Matrix : Default
Codec ID : XVID
Codec ID/Hint : XviD
Duration : 1h 29min
Bitrate : 933 Kbps
Breite : 640 Pixel
Höhe : 352 Pixel
Bildseitenverhältnis : 16/9
Bildwiederholungsrate : 23.976 FPS
Auflösung : 8 bits
Colorimetry : 4:2:0
Scan type : Progressive
Bits/(Pixel*Frame) : 0.173
Stream size : 596 MiB
verwendete Encoder-Bibliothek : XviD 50

Audio
Format : MPEG Audio
Format version : Version 1
Format profile : Layer 3
Codec ID : 55
Codec ID/Hint : MP3
Duration : 1h 29min
Bitraten-Modus : Variable
Bitrate : 149 Kbps
Minimum bit rate : 32.0 Kbps
Kanäle : 2 Kanäle
Samplingrate : 48.0 KHz
Auflösung : 16 bits
Stream size : 94.9 MiB
verwendete Encoder-Bibliothek : LAME3.98b
Kodierungseinstellungen : VBR (mtrh)

related torrents

Torrent name

health leech seeds Size
 

comments (0)

Main Menu