Rock

Robert Plant Dreamland (2002) [EAC FLAC][colombo bt org]

  • Download 5x Faster
  • Download torrent
  • Direct Download
  • Rate this torrent +  |  -
Robert Plant Dreamland (2002) [EAC FLAC][colombo bt org]

Free and Direct Download with Usenet.nl 300GB+ free


Torrent info

Name:Robert Plant Dreamland (2002) [EAC FLAC][colombo bt org]

Total Size: 335.83 MB

Magnet: Magnet Link

Seeds: 0

Leechers: 0

Stream: Watch Online @ Movie4u

Last Updated: 2015-09-08 20:43:34 (Update Now)

Torrent added: 2009-08-29 23:42:41





Torrent Files List


01 Funny In My Mind (I Believe I'm Fixin' To Die).flac (Size: 335.83 MB) (Files: 19)

 01 Funny In My Mind (I Believe I'm Fixin' To Die).flac

31.90 MB

 02 Morning Dew.flac

25.11 MB

 03 One More Cup Of Coffee.flac

26.40 MB

 04 Last Time I Saw Her.flac

29.84 MB

 05 Song To The Siren.flac

35.72 MB

 06 Win My Train Fare Home (If I Ever Get Lucky).flac

37.01 MB

 07 Darkness Darkness.flac

43.05 MB

 08 Red Dress.flac

33.86 MB

 09 Hey Joe.flac

44.72 MB

 10 Skip's Song.flac

27.82 MB

 Back.jpg

115.70 KB

 CD.jpg

99.63 KB

 Dreamland.cue

1.77 KB

 Front.jpg

108.90 KB

 info.txt

0.70 KB

 Inside.jpg

81.02 KB

 Robert Plant - Dreamland.ffp

0.72 KB

 Robert Plant - Dreamland.log

4.83 KB

 Robert Plant - Dreamland.m3u

0.78 KB
 

tracker

leech seeds
 

Torrent description

Robert Plant   Dreamland (2002) [EAC FLAC][colombo bt org] preview 0

Robert Plant   Dreamland (2002) [EAC FLAC][colombo bt org] preview 1

[size=35pt][color=blue][font=eurostile]ROBERT PLANT[/font][/color][/size]
[size=30pt][color=blue][font=eurostile]DREAMLAND[/font][/color][/size]

Robert Plant   Dreamland (2002) [EAC FLAC][colombo bt org] preview 2

Robert Plant   Dreamland (2002) [EAC FLAC][colombo bt org] preview 3

Robert Plant   Dreamland (2002) [EAC FLAC][colombo bt org] preview 4

[font=eurostile][size=12pt]Titolo: [color=maroon]Dreamland[/color]
Anno: [color=maroon]2002[/color]
[b]Genere: [color=maroon]Rock[/color]
Edizione: [color=maroon]Originale[/color]
Formato: [color=maroon]Flac - Level 8[/color]
Fonte: [color=maroon]Cd originale[/color]
[color=blue]Covers incluse nel Torrent[/color][/size][/font]

[code]Exact Audio Copy V0.99 prebeta 3 from 28. July 2007

EAC extraction logfile from 21. April 2008, 15:40

Robert Plant / Dreamland

Used drive : PIONEER DVD-RW DVR-111D Adapter: 1 ID: 0

Read mode : Secure
Utilize accurate stream : Yes
Defeat audio cache : Yes
Make use of C2 pointers : No

Read offset correction : 48
Overread into Lead-In and Lead-Out : No
Fill up missing offset samples with silence : Yes
Delete leading and trailing silent blocks : No
Null samples used in CRC calculations : Yes
Used interface : Installed external ASPI interface
Gap handling : Appended to previous track

Used output format : Internal WAV Routines
Sample format : 44.100 Hz; 16 Bit; Stereo


TOC of the extracted CD

Track | Start | Length | Start sector | End sector
---------------------------------------------------------
1 | 0:00.00 | 4:45.71 | 0 | 21445
2 | 4:45.71 | 4:26.15 | 21446 | 41410
3 | 9:12.11 | 4:03.72 | 41411 | 59707
4 | 13:16.08 | 4:41.34 | 59708 | 80816
5 | 17:57.42 | 5:53.57 | 80817 | 107348
6 | 23:51.24 | 6:04.08 | 107349 | 134656
7 | 29:55.32 | 7:10.36 | 134657 | 166942
8 | 37:05.68 | 5:24.00 | 166943 | 191242
9 | 42:29.68 | 7:12.26 | 191243 | 223668
10 | 49:42.19 | 4:49.56 | 223669 | 245399


Track 1

Filename C:\Documents and Settings\Saura\Desktop\Robert Plant - Dreamland\01 Funny In My Mind (I Believe I'm Fixin' To Die).wav

Pre-gap length 0:00:02.00

Peak level 99.8 %
Track quality 100.0 %
Test CRC 08D52953
Copy CRC 08D52953
Accurately ripped (confidence 16) [C97558E0]
Copy OK

Track 2

Filename C:\Documents and Settings\Saura\Desktop\Robert Plant - Dreamland\02 Morning Dew.wav

Pre-gap length 0:00:01.47

Peak level 99.8 %
Track quality 100.0 %
Test CRC 8443EE1B
Copy CRC 8443EE1B
Accurately ripped (confidence 16) [38F86F41]
Copy OK

Track 3

Filename C:\Documents and Settings\Saura\Desktop\Robert Plant - Dreamland\03 One More Cup Of Coffee.wav

Pre-gap length 0:00:01.50

Peak level 99.8 %
Track quality 100.0 %
Test CRC 55B69842
Copy CRC 55B69842
Accurately ripped (confidence 16) [87898AD2]
Copy OK

Track 4

Filename C:\Documents and Settings\Saura\Desktop\Robert Plant - Dreamland\04 Last Time I Saw Her.wav

Pre-gap length 0:00:02.55

Peak level 99.8 %
Track quality 100.0 %
Test CRC CA5466DE
Copy CRC CA5466DE
Accurately ripped (confidence 16) [41728B79]
Copy OK

Track 5

Filename C:\Documents and Settings\Saura\Desktop\Robert Plant - Dreamland\05 Song To The Siren.wav

Pre-gap length 0:00:01.55

Peak level 99.8 %
Track quality 100.0 %
Test CRC 89C561B4
Copy CRC 89C561B4
Accurately ripped (confidence 16) [F09A732D]
Copy OK

Track 6

Filename C:\Documents and Settings\Saura\Desktop\Robert Plant - Dreamland\06 Win My Train Fare Home (If I Ever Get Lucky).wav

Pre-gap length 0:00:01.42

Peak level 99.8 %
Track quality 100.0 %
Test CRC 97719E70
Copy CRC 97719E70
Accurately ripped (confidence 16) [C5F335D7]
Copy OK

Track 7

Filename C:\Documents and Settings\Saura\Desktop\Robert Plant - Dreamland\07 Darkness Darkness.wav

Pre-gap length 0:00:02.47

Peak level 99.8 %
Track quality 100.0 %
Test CRC 05B5D7F5
Copy CRC 05B5D7F5
Accurately ripped (confidence 16) [A1A6EE1B]
Copy OK

Track 8

Filename C:\Documents and Settings\Saura\Desktop\Robert Plant - Dreamland\08 Red Dress.wav

Pre-gap length 0:00:01.42

Peak level 99.8 %
Track quality 100.0 %
Test CRC F165DCB4
Copy CRC F165DCB4
Accurately ripped (confidence 16) [04169521]
Copy OK

Track 9

Filename C:\Documents and Settings\Saura\Desktop\Robert Plant - Dreamland\09 Hey Joe.wav

Pre-gap length 0:00:02.49

Peak level 99.8 %
Track quality 99.9 %
Test CRC E0F88807
Copy CRC E0F88807
Accurately ripped (confidence 16) [B7E86660]
Copy OK

Track 10

Filename C:\Documents and Settings\Saura\Desktop\Robert Plant - Dreamland\10 Skip's Song.wav

Pre-gap length 0:00:09.35

Peak level 99.8 %
Track quality 100.0 %
Test CRC 5097DAFF
Copy CRC 5097DAFF
Accurately ripped (confidence 15) [9A2A76EA]
Copy OK


All tracks accurately ripped

No errors occurred

End of status report
[/code]

Robert Plant   Dreamland (2002) [EAC FLAC][colombo bt org] preview 5

Robert Plant   Dreamland (2002) [EAC FLAC][colombo bt org] preview 6

[font=eurostile][size=12pt][color=black]01.[/color] Funny In My Mind (I Believe I'm Fixin' To Die)
[color=black]02.[/color] Morning Dew
[color=black]03.[/color] One More Cup Of Coffee
[color=black]04.[/color] Last Time I Saw Here
[color=black]05.[/color] Song To The Siren
[color=black]06.[/color] Win My Train Fare Home (If I Ever Get Lucky)
[color=black]07.[/color] Darkness, Darkness
[color=black]08.[/color] Red Dress
[color=black]09.[/color] Hey Joe
[color=black]10.[/color] Skip's Song
[/size][/font]

Robert Plant   Dreamland (2002) [EAC FLAC][colombo bt org] preview 7

[font=eurostile][size=12pt]Dreamland, all'annuncio dell'uscita, poteva far pensare ad un disco piatto e privo di energia. Infatti dopo tanti anni di assenza quale solista (se si escludono i dischi nati dalla reunion tra Page e Plant di inizio '90), tutto ci si poteva aspettare tranne un lavoro composto da otto cover su dieci brani (gli unici due inediti sono infatti Last Time I Saw Her e Red Dress). Ed ecco che, come spesso accade, l'abbaglio è stato preso, e alla grande!

Dreamland è infatti uno splendido disco di cover, un album tagliente e ottimamente interpretato. La voce appare un attimo più pacata e controllata ma questo non è certamente un male visto il risultato finale. Dopo i fasti con i Led Zeppelin, il signor Plant ha semplicemente, ed in modo naturale, raggiunto un'età matura, ma le sue capacità canore, anche se spesso ai tempi d'oro messe a dura prova, riescono sempre e comunque ad ammaliare e conquistare anche i più scettici.

Complice di tale capolavoro è anche la nuova band capitanata dall'"ex Cure" Porl Thompson alla chitarra, dal batterista Clive Deamer e dal tastierista John Baggot (ex Portishead) che danno un "tocco d'oriente" ad un album semplicemente incantevole.

Un ulteriore punto di forza sono le cover scelte: Funny In My Mind di Bukky White, One More Cup Of Coffee di Bob Dylan e Darkness Darkness degli Youngbloods sono grandiose, come pure la reinterpretazione di Song To The Siren di Tim Buckley. Morning Dew è una sorta di dedica ai Grateful Dead (che la inserirono nel loro album d'esordio), e da ultima ma decisamente non in ordine di importanza, è da segnalare Hey Joe, riveduta e "corretta" in perfetto stile Robert Plant, che con la sua voce riesce a trasportarci in un mondo avvolto di misticismo e magia, riecheggiando in qualche modo gli assoli da brivido di un Jimi Hendrix dei più ispirati.

[color=teal][font=eurostile][size=12pt]Recensione a cura di Universomusica.com[/size][/font][/color]

Robert Plant   Dreamland (2002) [EAC FLAC][colombo bt org] preview 8

related torrents

Torrent name

health leech seeds Size
 

comments (0)

Main Menu