Rock

robert calvert captain lockheed and the starfighters [1974 V0]

  • Download 5x Faster
  • Download torrent
  • Direct Download
  • Rate this torrent +  |  -
robert calvert captain lockheed and the starfighters [1974 V0]

Free and Direct Download with Usenet 300GB+ free


Torrent info

Name:robert calvert captain lockheed and the starfighters [1974 V0]

Total Size: 74.44 MB

Magnet: Magnet Link

Seeds: 0

Leechers: 0

Stream: Watch Online @ Movie4u

Last Updated: 2010-10-05 11:13:11 (Update Now)

Torrent added: 2009-08-29 23:41:15




Torrent Files List


01-(Dialogue 1) Franz Joseph Strauss.....mp3 (Size: 74.44 MB) (Files: 20)

 01-(Dialogue 1) Franz Joseph Strauss.....mp3

2.75 MB

 02-The Aerospaceage Inferno.mp3

9.06 MB

 03-(Dialogue 2) Aircraft Salesman.mp3

2.82 MB

 04-The Widow Maker.mp3

4.53 MB

 05-(Dialogue 3) Two test pilots....mp3

1.16 MB

 06-The Right Stuff.mp3

8.14 MB

 07-(Dialogue 4) Board meeting.mp3

1.66 MB

 08-The Song of the Gremlin (part 1).mp3

6.12 MB

 09-(Dialogue 5) Ground Crew.mp3

5.50 MB

 10-Hero with a Wing.mp3

5.45 MB

 11-(Dialogue 6) Ground Control To Pilot.mp3

1.62 MB

 12-Ejection.mp3

6.90 MB

 13-(Dialogue 7) Interview.mp3

6.26 MB

 14-(Dialogue 8) I Resign.mp3

809.34 KB

 15-The Song of the Gremlin (part 2).mp3

5.70 MB

 16-(Dialogue 9) Bier Garten.mp3

1.15 MB

 17-Catch A Falling Starfighter.mp3

4.83 MB

 Captain Lockheed and the Starfighters.CUE

2.79 KB

 Captain Lockheed and the Starfighters.log

4.62 KB

 Rob Calvert - Captain Lockheed and the Starfighters.m3u

1.44 KB
 

Announce URL: http://tpb.tracker.thepiratebay.org/announce

Torrent description

EAC extraction logfile from 10. December 2006, 9:04 for CD
Rob Calvert / Captain Lockheed and the Starfighters

Used drive : SAMSUNG CD-R/RW SW-252F Adapter: 1 ID: 0
Read mode : Secure with NO C2, accurate stream, disable cache
Read offset correction : 145
Overread into Lead-In and Lead-Out : No

Used output format : Internal WAV Routines
44.100 Hz; 16 Bit; Stereo

Other options :
Fill up missing offset samples with silence : Yes
Delete leading and trailing silent blocks : No
Native Win32 interface for Win NT & 2000


Track 1
Filename C:\Documents and Settings\NAAM\Mijn documenten\Mijn muziek\01-(Dialogue 1) Franz Joseph Strauss.....wav

Pre-gap length 0:00:02.42

Peak level 91.1 %
Track quality 100.0 %
Test CRC D855C709
Copy CRC D855C709
Copy OK

Track 2
Filename C:\Documents and Settings\NAAM\Mijn documenten\Mijn muziek\02-The Aerospaceage Inferno.wav

Peak level 100.0 %
Track quality 100.0 %
Test CRC 874BEAAE
Copy CRC 874BEAAE
Copy OK

Track 3
Filename C:\Documents and Settings\NAAM\Mijn documenten\Mijn muziek\03-(Dialogue 2) Aircraft Salesman.wav

Pre-gap length 0:00:00.60

Peak level 80.9 %
Track quality 100.0 %
Test CRC B2389F0E
Copy CRC B2389F0E
Copy OK

Track 4
Filename C:\Documents and Settings\NAAM\Mijn documenten\Mijn muziek\04-The Widow Maker.wav

Peak level 99.0 %
Track quality 100.0 %
Test CRC C4FAF363
Copy CRC C4FAF363
Copy OK

Track 5
Filename C:\Documents and Settings\NAAM\Mijn documenten\Mijn muziek\05-(Dialogue 3) Two test pilots....wav

Peak level 96.4 %
Track quality 100.0 %
Test CRC E9531B54
Copy CRC E9531B54
Copy OK

Track 6
Filename C:\Documents and Settings\NAAM\Mijn documenten\Mijn muziek\06-The Right Stuff.wav

Peak level 95.1 %
Track quality 100.0 %
Test CRC C24AAB1B
Copy CRC C24AAB1B
Copy OK

Track 7
Filename C:\Documents and Settings\NAAM\Mijn documenten\Mijn muziek\07-(Dialogue 4) Board meeting.wav

Peak level 100.0 %
Track quality 100.0 %
Test CRC 530255EB
Copy CRC 530255EB
Copy OK

Track 8
Filename C:\Documents and Settings\NAAM\Mijn documenten\Mijn muziek\08-The Song of the Gremlin (part 1).wav

Peak level 100.0 %
Track quality 100.0 %
Test CRC 9B9105AE
Copy CRC 9B9105AE
Copy OK

Track 9
Filename C:\Documents and Settings\NAAM\Mijn documenten\Mijn muziek\09-(Dialogue 5) Ground Crew.wav

Pre-gap length 0:00:01.10

Peak level 78.1 %
Track quality 99.9 %
Test CRC C5D53E85
Copy CRC C5D53E85
Copy OK

Track 10
Filename C:\Documents and Settings\NAAM\Mijn documenten\Mijn muziek\10-Hero with a Wing.wav

Peak level 62.3 %
Track quality 99.9 %
Test CRC 5CFBE844
Copy CRC 5CFBE844
Copy OK

Track 11
Filename C:\Documents and Settings\NAAM\Mijn documenten\Mijn muziek\11-(Dialogue 6) Ground Control To Pilot.wav

Peak level 97.2 %
Track quality 100.0 %
Test CRC 1886BAAF
Copy CRC 1886BAAF
Copy OK

Track 12
Filename C:\Documents and Settings\NAAM\Mijn documenten\Mijn muziek\12-Ejection.wav

Peak level 100.0 %
Track quality 100.0 %
Test CRC 61762F7A
Copy CRC 61762F7A
Copy OK

Track 13
Filename C:\Documents and Settings\NAAM\Mijn documenten\Mijn muziek\13-(Dialogue 7) Interview.wav

Peak level 96.0 %
Track quality 100.0 %
Test CRC 1FC30AA5
Copy CRC 1FC30AA5
Copy OK

Track 14
Filename C:\Documents and Settings\NAAM\Mijn documenten\Mijn muziek\14-(Dialogue 8) I Resign.wav

Peak level 100.0 %
Track quality 100.0 %
Test CRC B73B0C99
Copy CRC B73B0C99
Copy OK

Track 15
Filename C:\Documents and Settings\NAAM\Mijn documenten\Mijn muziek\15-The Song of the Gremlin (part 2).wav

Peak level 100.0 %
Track quality 100.0 %
Test CRC 191F44CC
Copy CRC 191F44CC
Copy OK

Track 16
Filename C:\Documents and Settings\NAAM\Mijn documenten\Mijn muziek\16-(Dialogue 9) Bier Garten.wav

Peak level 100.0 %
Track quality 100.0 %
Test CRC 9E390356
Copy CRC 9E390356
Copy OK

Track 17
Filename C:\Documents and Settings\NAAM\Mijn documenten\Mijn muziek\17-Catch A Falling Starfighter.wav

Peak level 81.2 %
Track quality 99.9 %
Test CRC 6BB8E99A
Copy CRC 6BB8E99A
Copy OK

No errors occured


End of status report

related torrents

Torrent name

health leech seeds Size
 

comments (0)

Main Menu