Rock

DETECTIVE Detective (1977)[Eac Flac][colombo bt org]

  • Download 5x Faster
  • Download torrent
  • Direct Download
  • Rate this torrent +  |  -
DETECTIVE Detective (1977)[Eac Flac][colombo bt org]

Anonymous and Free Direct Download


Torrent info

Name:DETECTIVE Detective (1977)[Eac Flac][colombo bt org]

Total Size: 262.26 MB

Magnet: Magnet Link

Seeds: 0

Leechers: 0

Stream: Watch Online @ Movie4u

Last Updated: 2010-12-22 19:09:13 (Update Now)

Torrent added: 2009-08-29 23:32:53



VPN For Torrents

Torrent Files List


01 Track01.flac (Size: 262.26 MB) (Files: 18)

 01 Track01.flac

28.98 MB

 02 Track02.flac

26.05 MB

 03 Track03.flac

31.18 MB

 04 Track04.flac

31.78 MB

 05 Track05.flac

24.37 MB

 06 Track06.flac

30.48 MB

 07 Track07.flac

19.64 MB

 08 Track08.flac

28.60 MB

 09 Track09.flac

38.88 MB

 Detective - CD290.jpg

227.17 KB

 DETECTIVE - Detective (1977)[Eac Flac].ffp

0.54 KB

 Detective - fronte292.jpg

1.09 MB

 Detective - fronte293.jpg

663.11 KB

 Detective - retro291.jpg

338.06 KB

 Detective.txt

0.52 KB

 Unknown Artist - Unknown Title.log

4.19 KB

 Unknown Artist - Unknown Title.m3u

0.48 KB

 Unknown Title.cue

1.18 KB
 

Announce URL:

Torrent description

DETECTIVE   Detective (1977)[Eac Flac][colombo bt org] preview 0

[color=blue][font=Verdana]Titolo: DETECTIVE - Detective
Anno: 1977
Etichetta: Wounded Bird Records
Genere: Hard Rock
Formato: Flac Level 8
Cover: sì (scansioni originali)
Fonte: CD originale
Edizione: Wounded Bird Records 2003 / ATLANTIC
[/font][/color]

[code]Exact Audio Copy V0.99 prebeta 3 from 28. July 2007

EAC extraction logfile from 7. May 2008, 22:57

Unknown Artist / Unknown Title

Used drive : PLEXTOR DVDR PX-800A Adapter: 1 ID: 0

Read mode : Secure
Utilize accurate stream : Yes
Defeat audio cache : Yes
Make use of C2 pointers : No

Read offset correction : 48
Overread into Lead-In and Lead-Out : No
Fill up missing offset samples with silence : Yes
Delete leading and trailing silent blocks : No
Null samples used in CRC calculations : No
Used interface : Installed external ASPI interface
Gap handling : Appended to previous track

Used output format : Internal WAV Routines
Sample format : 44.100 Hz; 16 Bit; Stereo


TOC of the extracted CD

Track | Start | Length | Start sector | End sector
---------------------------------------------------------
1 | 0:00.00 | 4:31.41 | 0 | 20365
2 | 4:31.41 | 3:38.47 | 20366 | 36762
3 | 8:10.13 | 4:23.41 | 36763 | 56528
4 | 12:33.54 | 4:51.02 | 56529 | 78355
5 | 17:24.56 | 3:28.46 | 78356 | 94001
6 | 20:53.27 | 4:31.19 | 94002 | 114345
7 | 25:24.46 | 3:06.34 | 114346 | 128329
8 | 28:31.05 | 4:17.73 | 128330 | 147677
9 | 32:49.03 | 5:21.71 | 147678 | 171823


Track 1

Filename C:\\Documents and Settings\\Stefano\\Desktop\\DETECTIVE - Detective (1977)[Eac Flac]\\01 Track01.wav

Pre-gap length 0:00:02.00

Peak level 99.1 %
Track quality 100.0 %
Test CRC D1EC2053
Copy CRC D1EC2053
Accurately ripped (confidence 1) [AE70A2F9]
Copy OK

Track 2

Filename C:\\Documents and Settings\\Stefano\\Desktop\\DETECTIVE - Detective (1977)[Eac Flac]\\02 Track02.wav

Peak level 98.7 %
Track quality 100.0 %
Test CRC 11748254
Copy CRC 11748254
Accurately ripped (confidence 1) [021917A3]
Copy OK

Track 3

Filename C:\\Documents and Settings\\Stefano\\Desktop\\DETECTIVE - Detective (1977)[Eac Flac]\\03 Track03.wav

Peak level 99.1 %
Track quality 100.0 %
Test CRC 5BDFAACC
Copy CRC 5BDFAACC
Accurately ripped (confidence 1) [B2EC0385]
Copy OK

Track 4

Filename C:\\Documents and Settings\\Stefano\\Desktop\\DETECTIVE - Detective (1977)[Eac Flac]\\04 Track04.wav

Peak level 98.5 %
Track quality 100.0 %
Test CRC CA695623
Copy CRC CA695623
Accurately ripped (confidence 1) [78E071ED]
Copy OK

Track 5

Filename C:\\Documents and Settings\\Stefano\\Desktop\\DETECTIVE - Detective (1977)[Eac Flac]\\05 Track05.wav

Peak level 98.9 %
Track quality 100.0 %
Test CRC 08750046
Copy CRC 08750046
Accurately ripped (confidence 1) [E1972A0D]
Copy OK

Track 6

Filename C:\\Documents and Settings\\Stefano\\Desktop\\DETECTIVE - Detective (1977)[Eac Flac]\\06 Track06.wav

Peak level 99.1 %
Track quality 100.0 %
Test CRC 5E82E215
Copy CRC 5E82E215
Accurately ripped (confidence 1) [2E82B9B2]
Copy OK

Track 7

Filename C:\\Documents and Settings\\Stefano\\Desktop\\DETECTIVE - Detective (1977)[Eac Flac]\\07 Track07.wav

Peak level 98.4 %
Track quality 99.9 %
Test CRC 5701A22A
Copy CRC 5701A22A
Accurately ripped (confidence 1) [642D1D0E]
Copy OK

Track 8

Filename C:\\Documents and Settings\\Stefano\\Desktop\\DETECTIVE - Detective (1977)[Eac Flac]\\08 Track08.wav

Peak level 98.8 %
Track quality 100.0 %
Test CRC 45350353
Copy CRC 45350353
Accurately ripped (confidence 1) [D78AAA50]
Copy OK

Track 9

Filename C:\\Documents and Settings\\Stefano\\Desktop\\DETECTIVE - Detective (1977)[Eac Flac]\\09 Track09.wav

Peak level 97.2 %
Track quality 100.0 %
Test CRC 5FA64FFE
Copy CRC 5FA64FFE
Accurately ripped (confidence 1) [6085F4B1]
Copy OK


All tracks accurately ripped

No errors occurred

End of status report
[/code]

DETECTIVE   Detective (1977)[Eac Flac][colombo bt org] preview 1

[color=blue]01.recognition
02.got enough love
03.grim reaper
04.nightingale
05.detective man
06.ain\'t none of your business
07.deep down
08.wild hot summer night
09.one more heartache
[/color]

DETECTIVE   Detective (1977)[Eac Flac][colombo bt org] preview 2

DETECTIVE   Detective (1977)[Eac Flac][colombo bt org] preview 3

[font=Verdana]
DETECTIVE fu un gruppo americano della seconda metà anni settanta, nato intorno alla figura di MICHAEL DES BARRES, attore e cantante rock inglese.
Dal 1972 al 1974 Michael fu il leader dei SILVERHEAD, gruppo inglese che produsse un paio di dischi, e fece tour in Inghilterra, America e Giappone.
Nel 1975 Des Barres si trasferì a Los Angeles e formò i DETECTIVE (con TONY KAYE alle tastiere) con i quali pubblicò un paio di dischi per la SWAN SONG, la etichetta dei LED ZEPPELIN.
Nel 1980 fu la volta di un suo album solista, nel 1982 lo si vide ancora insieme ad un gruppo, i CHEQUERED PAST (insieme a membri di Sex Pistols e Blondie) e nel 1985 entrò a far parte dei POWER STATION (sostituendo ROBERT PALMER) con i quali partecipò a LIVE AID.
Questi i passi più importanti riguardo la sua carriera musicale. Lasceremo perdere la sua carriera di attore, non essendo questa la sede più adatta.
Michael Des Barres fu il marito della famosa groupie PAMELA DES BARRES.

Il primo album dei DETECTIVE che qui presentiamo è uno dei suoi lavori più riusciti; trattasi di buona raccolta di canzoni rock e hard rock, quattro delle quali prodotte da JIMMY PAGE dei LED ZEPPELIN sotto lo pseudonimo di Jimmy Robinson..

(note di nonantolaslim maggio 08)
[/font]

related torrents

Torrent name

health leech seeds Size
 


comments (0)

Main Menu