Thriller

PAYCHECK DEWSTRR

  • Download 5x Faster
  • Download torrent
  • Direct Download
  • Rate this torrent +  |  -
PAYCHECK DEWSTRR

Free and Direct Download with Usenet.nl 300GB+ free


Torrent info

Name:PAYCHECK DEWSTRR

Total Size: 1.30 GB

Magnet: Magnet Link

Seeds: 3

Leechers: 2

Stream: Watch Online @ Movie4u

Last Updated: 2010-02-11 12:25:00 (Update Now)

Torrent added: 2009-08-29 23:32:40





Torrent Files List


2-19-2009 1-31-40 AM.jpg (Size: 1.30 GB) (Files: 11)

 2-19-2009 1-31-40 AM.jpg

29.75 KB

 2-19-2009 1-33-58 AM.jpg

19.16 KB

 2-19-2009 1-37-52 AM.jpg

17.98 KB

 2-19-2009 1-43-06 AM.jpg

20.93 KB

 2-19-2009 1-50-12 AM.jpg

23.49 KB

 2-19-2009 1-59-48 AM.jpg

27.56 KB

 2-19-2009 2-01-17 AM.jpg

21.71 KB

 2-19-2009 2-10-36 AM.jpg

40.12 KB

 2-19-2009 2-15-04 AM.jpg

21.90 KB

 PAYCHECK.DEWSTRR.divx

1.30 GB

 Torrent_downloaded_from_Demonoid.com.txt

0.05 KB
 

Announce URL: http://inferno.demonoid.com:3407/announce

Torrent description

Movies : Thriller,Sci-Fi : DVD Rip : English
Ben Affleck plays a reverse engineer and what he does is technical jobs for certain companies, he makes a deal with Aaron Eckhart to make him a multi millionaire, but Aaron Eckhart turns on him and his memory is erased,he is framed but he has an edge if he can recall why he saved these objects before his memory was erased

http://www.imdb.com/title/tt0338337/

General
Complete name: PAYCHECK.DEWSTRR.divx
Format : DivX
Format/Info : Audio Video Interleave
File size : 1.30 GiB
Duration : 1h 53mn
Overall bit rate : 1 638 Kbps

Video
Format : MPEG-4 Visual
Format settings, BVOP : Yes
Format settings, QPel : No
Format settings, GMC : No warppoints
Format settings, Matrix : Default
Codec ID : DX50
Codec ID/Hint : DivX 5
Duration : 1h 53mn
Bit rate : 1 501 Kbps
Width : 704 pixels
Height : 320 pixels
Display aspect ratio : 2.2
Frame rate : 25.000 fps
Resolution : 24 bits
Colorimetry : 4:2:0
Scan type : Progressive
Bits/(Pixel*Frame) : 0.266
Stream size : 1.19 GiB (92%)
Title : Video
Writing library : DivX 6.8.2 (UTC 2008-05-17)

Audio
Format : MPEG Audio
Format version : Version 2
Format profile : Layer 3
Codec ID : 55
Codec ID/Hint : MP3
Duration : 1h 53mn
Bit rate mode : Constant
Bit rate : 128 Kbps
Channel(s) : 2 channels
Sampling rate : 24.0 KHz
Resolution : 16 bits
Stream size : 104 MiB (8%)
Alignment : Split accross interleaves
Interleave, duration : 40 ms (1.00 video frame)
Interleave, preload duration : 500 ms
Title : Audio

General
Complete name : PAYCHECK.DEWSTRR\Torrent_downloaded_from_Demonoid.com.txt
File size : 47.0 Bytes
PAYCHECK DEWSTRR preview 0
PAYCHECK DEWSTRR preview 1
PAYCHECK DEWSTRR preview 2
PAYCHECK DEWSTRR preview 3
PAYCHECK DEWSTRR preview 4
PAYCHECK DEWSTRR preview 5
PAYCHECK DEWSTRR preview 6
PAYCHECK DEWSTRR preview 7
burned with windows [with a couple of other movies] and played on my philips divx ultra certified dvd player

related torrents

Torrent name

health leech seeds Size
 

comments (0)

Main Menu