Thriller

P2 DIVX 2007 La Vela avi

  • Download 5x Faster
  • Download torrent
  • Direct Download
  • Rate this torrent +  |  -
P2 DIVX 2007 La Vela avi

Free and Direct Download with Usenet 300GB+ free


Torrent info

Name:P2 DIVX 2007 La Vela avi

Total Size: 1.59 GB

Magnet: Magnet Link

Seeds: 0

Leechers: 0

Stream: Watch Online @ Movie4u

Last Updated: 2010-07-27 22:07:35 (Update Now)

Torrent added: 2009-08-29 23:27:05




Torrent Files List


Media.nfo (Size: 1.59 GB) (Files: 5)

 Media.nfo

2.20 KB

 P2.DIVX.2007.La.Vela.avi

1.59 GB

 P2.jpg

18.25 KB

 P2_Custom-front.jpg

1.47 MB

 Thank You Info.txt

8.27 KB
 

Announce URL: http://open.tracker.thepiratebay.org/announce

Torrent description

Plot:

In the Christmas Eve in New York, the workaholic executive Angela works until late night. When she is ready to drive to her family's Christmas party, her BMW does not start and she calls a cab. However, she is unable to leave the building, since all the exits are locked, and she returns to the garage, where she meets the night watch Thomas. The security guard tries to help her with a battery charger, but the car does not start. Angela asks him to open the gate; however, she is unexpectedly attacked by a psychopath, beginning her night of horror trapped in the building.


General:

Complete name : P2.DIVX.2007.La.Vela.avi

Imdb : http://www.imdb.com/title/tt0804516/
Language : English
Subtitles : N/A
Format : AVI
Format/Info : Audio Video Interleave
Format profile : OpenDML
File size : 1.59 GiB
Duration : 4h 9mn
Overall bit rate : 913 Kbps
Writing application : Lavf51.12.1

Video
Format : MPEG-4 Visual
Format profile : Simple@L1
Format settings, BVOP : No
Format settings, QPel : No
Format settings, GMC : No warppoints
Format settings, Matrix : Default
Codec ID : DX50
Codec ID/Hint : DivX 5
Duration : 4h 9mn
Bit rate : 859 Kbps
Width : 720 pixels
Height : 576 pixels
Display aspect ratio : 5/4
Frame rate : 25.000 fps
Standard : PAL
Resolution : 24 bits
Colorimetry : 4:2:0
Scan type : Progressive
Bits/(Pixel*Frame) : 0.083
Stream size : 1.50 GiB (94%)
Writing library : Lavc51.40.4

Audio
Format : MPEG Audio
Format version : Version 1
Format profile : Layer 3
Codec ID : 55
Codec ID/Hint : MP3
Duration : 1h 33mn
Bit rate mode : Constant
Bit rate : 128 Kbps
Channel(s) : 2 channels
Sampling rate : 48.0 KHz
Resolution : 16 bits
Stream size : 85.7 MiB (5%)
Alignment : Aligned on interleaves
Interleave, duration : 24 ms (0.60 video frame)
Interleave, preload duration : 24 ms
Writing library : LAME3.97

related torrents

Torrent name

health leech seeds Size
 

comments (0)

Main Menu