Thriller

Nowhere to Land (2000) (Optional SWESUBS)

  • Download 5x Faster
  • Download torrent
  • Direct Download
  • Rate this torrent +  |  -
Nowhere to Land (2000) (Optional SWESUBS)

Anonymous and Free Direct Download 300GB+


Torrent info

Name:Nowhere to Land (2000) (Optional SWESUBS)

Total Size: 696.51 MB

Magnet: Magnet Link

Seeds: 0

Leechers: 0

Stream: Watch Online @ Movie4u

Last Updated: 2016-12-22 14:27:18 (Update Now)

Torrent added: 2009-08-29 23:19:08



VPN For Torrents

Torrent Files List


Info about this release.txt (Size: 696.51 MB) (Files: 4)

 Info about this release.txt

4.37 KB

 Notes on subtitle files.txt

1.68 KB

 Nowhere to Land (2000) [Bomb on plane suspense](opt. SWESUBS).avi

695.85 MB

 Optional Swedish subtitles.rar

671.48 KB
 

tracker

leech seeds
 

Torrent description

Nowhere to Land (2000)
Optional Swedish subtitles in separate idx/sub files

With Jack Wagner and Christine Elise

A 'Jumbo' 747 with 300 passengers flying from Australia to California is threatened by a bomb that might contain more than just explosives.
A gem for us planespotters and aircrash freaks. The voters on imdb totally missed the point.

Good picture quality for a made-for-TV movie.

DVDrip 2-pass AC3.
Original fullscreen 672x512, very good stereo sound.
Burn tested, runs well in both my standalone DivX players.


Format/Info : Audio Video Interleave
File size : 696 MiB
Duration : 1h 27mn
Overal bit rate : 1109 Kbps

Video
Format : MPEG-4 Visual
Format profile : Streaming [email protected]
Format settings, BVOP : Yes
Format settings, QPel : No
Format settings, GMC : No warppoints
Format settings, Matrix : Default
Muxing mode : Packet Bitstream
Codec ID : XVID
Codec ID/Hint : XviD
Duration : 1h 27mn
Bit rate : 971 Kbps
Width : 672 pixels
Height : 512 pixels
Display aspect ratio : 4/3
Frame rate : 25.000 fps
Resolution : 8 bits
Colorimetry : 4:2:0
Scan type : Progressive
Bits/(Pixel*Frame) : 0.113
Stream size : 609 MiB
Writing library : XviD 1.2.0.dev47 (UTC 2006-11-01)

Audio
Format : MPEG Audio
Format version : Version 1
Format profile : Layer 3
Codec ID : 55
Codec ID/Hint : MP3
Duration : 1h 27mn
Bit rate mode : Constant
Bit rate : 128 Kbps
Minimum bit rate : 128 Kbps
Channel(s) : 2 channels
Sampling rate : 48.0 KHz
Resolution : 16 bits
Stream size : 80.3 MiB
Writing library : LAME3.97
Encoding settings : CBR

Source: PAL rental (note that PAL/NTSC will give no problems for avi files)

Thanks Kuthumi!

Seeders are winners!

related torrents

Torrent name

health leech seeds Size

Nowhere To Land Dutch Sub

0 0 378.00 MB 0

Nowhere To Land mp4

0 0 912.97 MB 0
 


comments (0)

Main Menu